  0
SECTION
  2
HEADER
  9
$ACADVER
  1
AC1018
  9
$ACADMAINTVER
 70
     0
  9
$DWGCODEPAGE
  3
ANSI_1252
  9
$INSBASE
 10
0.0
 20
0.0
 30
0.0
  9
$EXTMIN
 10
1.000000E+20
 20
1.000000E+20
 30
1.000000E+20
  9
$EXTMAX
 10
-1.000000E+20
 20
-1.000000E+20
 30
-1.000000E+20
  9
$LIMMIN
 10
0.0
 20
0.0
  9
$LIMMAX
 10
420.0
 20
297.0
  9
$ORTHOMODE
 70
     0
  9
$REGENMODE
 70
     1
  9
$FILLMODE
 70
     1
  9
$QTEXTMODE
 70
     0
  9
$MIRRTEXT
 70
     1
  9
$LTSCALE
 40
1.0
  9
$ATTMODE
 70
     1
  9
$TEXTSIZE
 40
250.0
  9
$TRACEWID
 40
1.0
  9
$TEXTSTYLE
  7
Standard
  9
$CLAYER
  8
0
  9
$CELTYPE
  6
ByLayer
  9
$CECOLOR
 62
   256
  9
$CELTSCALE
 40
100.0
  9
$DISPSILH
 70
     0
  9
$DIMSCALE
 40
100.0
  9
$DIMASZ
 40
0.3
  9
$DIMEXO
 40
0.625
  9
$DIMDLI
 40
3.75
  9
$DIMRND
 40
0.0
  9
$DIMDLE
 40
0.0
  9
$DIMEXE
 40
1.25
  9
$DIMTP
 40
0.0
  9
$DIMTM
 40
0.0
  9
$DIMTXT
 40
2.5
  9
$DIMCEN
 40
2.0
  9
$DIMTSZ
 40
0.0
  9
$DIMTOL
 70
     0
  9
$DIMLIM
 70
     0
  9
$DIMTIH
 70
     0
  9
$DIMTOH
 70
     0
  9
$DIMSE1
 70
     0
  9
$DIMSE2
 70
     0
  9
$DIMTAD
 70
     1
  9
$DIMZIN
 70
     8
  9
$DIMBLK
  1

  9
$DIMASO
 70
     1
  9
$DIMSHO
 70
     1
  9
$DIMPOST
  1

  9
$DIMAPOST
  1

  9
$DIMALT
 70
     0
  9
$DIMALTD
 70
     3
  9
$DIMALTF
 40
0.03937
  9
$DIMLFAC
 40
1.0
  9
$DIMTOFL
 70
     1
  9
$DIMTVP
 40
0.0
  9
$DIMTIX
 70
     0
  9
$DIMSOXD
 70
     0
  9
$DIMSAH
 70
     0
  9
$DIMBLK1
  1

  9
$DIMBLK2
  1

  9
$DIMSTYLE
  2
ISO-25
  9
$DIMCLRD
 70
     0
  9
$DIMCLRE
 70
     5
  9
$DIMCLRT
 70
     5
  9
$DIMTFAC
 40
1.0
  9
$DIMGAP
 40
0.625
  9
$DIMJUST
 70
     0
  9
$DIMSD1
 70
     0
  9
$DIMSD2
 70
     0
  9
$DIMTOLJ
 70
     0
  9
$DIMTZIN
 70
     8
  9
$DIMALTZ
 70
     0
  9
$DIMALTTZ
 70
     0
  9
$DIMUPT
 70
     0
  9
$DIMDEC
 70
     2
  9
$DIMTDEC
 70
     2
  9
$DIMALTU
 70
     2
  9
$DIMALTTD
 70
     3
  9
$DIMTXSTY
  7
Standard
  9
$DIMAUNIT
 70
     0
  9
$DIMADEC
 70
     0
  9
$DIMALTRND
 40
0.0
  9
$DIMAZIN
 70
     0
  9
$DIMDSEP
 70
    44
  9
$DIMATFIT
 70
     0
  9
$DIMFRAC
 70
     0
  9
$DIMLDRBLK
  1

  9
$DIMLUNIT
 70
     2
  9
$DIMLWD
 70
    -2
  9
$DIMLWE
 70
    -2
  9
$DIMTMOVE
 70
     0
  9
$LUNITS
 70
     2
  9
$LUPREC
 70
     4
  9
$SKETCHINC
 40
1.0
  9
$FILLETRAD
 40
10.0
  9
$AUNITS
 70
     0
  9
$AUPREC
 70
     0
  9
$MENU
  1
.
  9
$ELEVATION
 40
0.0
  9
$PELEVATION
 40
0.0
  9
$THICKNESS
 40
0.0
  9
$LIMCHECK
 70
     0
  9
$CHAMFERA
 40
0.0
  9
$CHAMFERB
 40
0.0
  9
$CHAMFERC
 40
0.0
  9
$CHAMFERD
 40
0.0
  9
$SKPOLY
 70
     0
  9
$TDCREATE
 40
2458256.579270405
  9
$TDUCREATE
 40
2458256.495937072
  9
$TDUPDATE
 40
2458297.502661563
  9
$TDUUPDATE
 40
2458297.419328229
  9
$TDINDWG
 40
0.0000000116
  9
$TDUSRTIMER
 40
0.0000000116
  9
$USRTIMER
 70
     1
  9
$ANGBASE
 50
0.0
  9
$ANGDIR
 70
     0
  9
$PDMODE
 70
     0
  9
$PDSIZE
 40
0.0
  9
$PLINEWID
 40
0.0
  9
$SPLFRAME
 70
     0
  9
$SPLINETYPE
 70
     6
  9
$SPLINESEGS
 70
     8
  9
$HANDSEED
  5
C31
  9
$SURFTAB1
 70
     6
  9
$SURFTAB2
 70
     6
  9
$SURFTYPE
 70
     6
  9
$SURFU
 70
     6
  9
$SURFV
 70
     6
  9
$UCSBASE
  2

  9
$UCSNAME
  2

  9
$UCSORG
 10
0.0
 20
0.0
 30
0.0
  9
$UCSXDIR
 10
1.0
 20
0.0
 30
0.0
  9
$UCSYDIR
 10
0.0
 20
1.0
 30
0.0
  9
$UCSORTHOREF
  2

  9
$UCSORTHOVIEW
 70
     0
  9
$UCSORGTOP
 10
0.0
 20
0.0
 30
0.0
  9
$UCSORGBOTTOM
 10
0.0
 20
0.0
 30
0.0
  9
$UCSORGLEFT
 10
0.0
 20
0.0
 30
0.0
  9
$UCSORGRIGHT
 10
0.0
 20
0.0
 30
0.0
  9
$UCSORGFRONT
 10
0.0
 20
0.0
 30
0.0
  9
$UCSORGBACK
 10
0.0
 20
0.0
 30
0.0
  9
$PUCSBASE
  2

  9
$PUCSNAME
  2

  9
$PUCSORG
 10
0.0
 20
0.0
 30
0.0
  9
$PUCSXDIR
 10
1.0
 20
0.0
 30
0.0
  9
$PUCSYDIR
 10
0.0
 20
1.0
 30
0.0
  9
$PUCSORTHOREF
  2

  9
$PUCSORTHOVIEW
 70
     0
  9
$PUCSORGTOP
 10
0.0
 20
0.0
 30
0.0
  9
$PUCSORGBOTTOM
 10
0.0
 20
0.0
 30
0.0
  9
$PUCSORGLEFT
 10
0.0
 20
0.0
 30
0.0
  9
$PUCSORGRIGHT
 10
0.0
 20
0.0
 30
0.0
  9
$PUCSORGFRONT
 10
0.0
 20
0.0
 30
0.0
  9
$PUCSORGBACK
 10
0.0
 20
0.0
 30
0.0
  9
$USERI1
 70
     0
  9
$USERI2
 70
     0
  9
$USERI3
 70
     0
  9
$USERI4
 70
     0
  9
$USERI5
 70
     0
  9
$USERR1
 40
0.0
  9
$USERR2
 40
0.0
  9
$USERR3
 40
0.0
  9
$USERR4
 40
0.0
  9
$USERR5
 40
0.0
  9
$WORLDVIEW
 70
     1
  9
$SHADEDGE
 70
     3
  9
$SHADEDIF
 70
    70
  9
$TILEMODE
 70
     1
  9
$MAXACTVP
 70
    64
  9
$PINSBASE
 10
0.0
 20
0.0
 30
0.0
  9
$PLIMCHECK
 70
     0
  9
$PEXTMIN
 10
1.000000E+20
 20
1.000000E+20
 30
1.000000E+20
  9
$PEXTMAX
 10
-1.000000E+20
 20
-1.000000E+20
 30
-1.000000E+20
  9
$PLIMMIN
 10
0.0
 20
0.0
  9
$PLIMMAX
 10
420.0
 20
297.0
  9
$UNITMODE
 70
     0
  9
$VISRETAIN
 70
     1
  9
$PLINEGEN
 70
     0
  9
$PSLTSCALE
 70
     0
  9
$TREEDEPTH
 70
  3020
  9
$CMLSTYLE
  2
Standard
  9
$CMLJUST
 70
     0
  9
$CMLSCALE
 40
20.0
  9
$PROXYGRAPHICS
 70
     1
  9
$MEASUREMENT
 70
     1
  9
$CELWEIGHT
370
    -1
  9
$ENDCAPS
280
     0
  9
$JOINSTYLE
280
     0
  9
$LWDISPLAY
290
     0
  9
$INSUNITS
 70
     4
  9
$HYPERLINKBASE
  1

  9
$STYLESHEET
  1

  9
$XEDIT
290
     1
  9
$CEPSNTYPE
380
     0
  9
$PSTYLEMODE
290
     1
  9
$FINGERPRINTGUID
  2
{AB1F5D9F-DF37-45AD-AF75-0187DDDCE809}
  9
$VERSIONGUID
  2
{FAEB1C32-E019-11D5-929B-00C0DF256EC4}
  9
$EXTNAMES
290
     1
  9
$PSVPSCALE
 40
0.0
  9
$OLESTARTUP
290
     0
  9
$SORTENTS
280
   127
  9
$INDEXCTL
280
     0
  9
$HIDETEXT
280
     1
  9
$XCLIPFRAME
290
     0
  9
$HALOGAP
280
     0
  9
$OBSCOLOR
 70
   257
  9
$OBSLTYPE
280
     0
  9
$INTERSECTIONDISPLAY
280
     0
  9
$INTERSECTIONCOLOR
 70
   257
  9
$DIMASSOC
280
     2
  9
$PROJECTNAME
  1

  0
ENDSEC
  0
SECTION
  2
CLASSES
  0
CLASS
  1
ACDBDICTIONARYWDFLT
  2
AcDbDictionaryWithDefault
  3
ObjectDBX Classes
 90
        0
 91
        8
280
     0
281
     0
  0
CLASS
  1
VISUALSTYLE
  2
AcDbVisualStyle
  3
ObjectDBX Classes
 90
     4095
 91
        7
280
     0
281
     0
  0
CLASS
  1
MATERIAL
  2
AcDbMaterial
  3
ObjectDBX Classes
 90
     1153
 91
        7
280
     0
281
     0
  0
CLASS
  1
SCALE
  2
AcDbScale
  3
ObjectDBX Classes
 90
     1153
 91
        7
280
     0
281
     0
  0
CLASS
  1
SUN
  2
AcDbSun
  3
SCENEOE
 90
     1153
 91
        7
280
     0
281
     0
  0
CLASS
  1
TABLESTYLE
  2
AcDbTableStyle
  3
ObjectDBX Classes
 90
     4095
 91
        6
280
     0
281
     0
  0
CLASS
  1
SORTENTSTABLE
  2
AcDbSortentsTable
  3
ObjectDBX Classes
 90
        0
 91
        4
280
     0
281
     0
  0
CLASS
  1
DICTIONARYVAR
  2
AcDbDictionaryVar
  3
ObjectDBX Classes
 90
        0
 91
        4
280
     0
281
     0
  0
CLASS
  1
McDbContainer2
  2
McDbContainer2
  3
NanoSPDS
 90
      893
 91
       12
280
     0
281
     0
  0
CLASS
  1
CELLSTYLEMAP
  2
AcDbCellStyleMap
  3
ObjectDBX Classes
 90
     1152
 91
        4
280
     0
281
     0
  0
CLASS
  1
LAYOUTPRINTCONFIG
  2
CAcLayoutPrintConfig
  3
"CSD_APP"
 90
     4095
 91
        4
280
     0
281
     1
  0
CLASS
  1
PLOTSETTINGS
  2
AcDbPlotSettings
  3
ObjectDBX Classes
 90
        0
 91
        4
280
     0
281
     0
  0
ENDSEC
  0
SECTION
  2
TABLES
  0
TABLE
  2
VPORT
  5
8
102
{ACAD_XDICTIONARY
360
BF5
102
}
330
0
100
AcDbSymbolTable
 70
     1
  0
VPORT
  5
29
330
8
100
AcDbSymbolTableRecord
100
AcDbViewportTableRecord
  2
*Active
 70
     0
 10
0.0
 20
0.0
 11
1.0
 21
1.0
 12
504.665549
 22
231.662893
 13
0.0
 23
0.0
 14
10.0
 24
10.0
 15
10.0
 25
10.0
 16
0.0
 26
0.0
 36
1.0
 17
0.0
 27
0.0
 37
0.0
 40
965.007194
 41
2.83731
 42
50.0
 43
0.0
 44
0.0
 50
0.0
 51
0.0
 71
    16
 72
   100
 73
     1
 74
     3
 75
     0
 76
     0
 77
     0
 78
     0
281
     0
 65
     1
110
0.0
120
0.0
130
0.0
111
1.0
121
0.0
131
0.0
112
0.0
122
1.0
132
0.0
 79
     0
146
0.0
  0
ENDTAB
  0
TABLE
  2
LTYPE
  5
5
330
0
100
AcDbSymbolTable
 70
     1
  0
LTYPE
  5
14
330
5
100
AcDbSymbolTableRecord
100
AcDbLinetypeTableRecord
  2
ByBlock
 70
     0
  3

 72
    65
 73
     0
 40
0.0
  0
LTYPE
  5
15
330
5
100
AcDbSymbolTableRecord
100
AcDbLinetypeTableRecord
  2
ByLayer
 70
     0
  3

 72
    65
 73
     0
 40
0.0
  0
LTYPE
  5
16
330
5
100
AcDbSymbolTableRecord
100
AcDbLinetypeTableRecord
  2
Continuous
 70
     0
  3
Solid line
 72
    65
 73
     0
 40
0.0
  0
ENDTAB
  0
TABLE
  2
LAYER
  5
2
330
0
100
AcDbSymbolTable
 70
     2
  0
LAYER
  5
10
330
2
100
AcDbSymbolTableRecord
100
AcDbLayerTableRecord
  2
0
 70
     0
 62
     7
  6
Continuous
370
    -3
390
F
  0
LAYER
  5
1BC
330
2
100
AcDbSymbolTableRecord
100
AcDbLayerTableRecord
  2
Defpoints
 70
     0
 62
     7
  6
Continuous
290
     0
370
    -3
390
F
  0
ENDTAB
  0
TABLE
  2
STYLE
  5
3
330
0
100
AcDbSymbolTable
 70
     1
  0
STYLE
  5
11
330
3
100
AcDbSymbolTableRecord
100
AcDbTextStyleTableRecord
  2
Standard
 70
     0
 40
0.0
 41
1.0
 50
0.0
 71
     0
 42
250.0
  3
Vrinda.ttf
  4

1001
ACAD
1000
Vrinda
1071
        0
  0
ENDTAB
  0
TABLE
  2
VIEW
  5
6
330
0
100
AcDbSymbolTable
 70
     0
  0
ENDTAB
  0
TABLE
  2
UCS
  5
7
330
0
100
AcDbSymbolTable
 70
     0
  0
ENDTAB
  0
TABLE
  2
APPID
  5
9
330
0
100
AcDbSymbolTable
 70
    11
  0
APPID
  5
12
330
9
100
AcDbSymbolTableRecord
100
AcDbRegAppTableRecord
  2
ACAD
 70
     0
  0
APPID
  5
6E
330
9
100
AcDbSymbolTableRecord
100
AcDbRegAppTableRecord
  2
MCS_DOCUMENT_ID
 70
     0
  0
APPID
  5
6F
330
9
100
AcDbSymbolTableRecord
100
AcDbRegAppTableRecord
  2
MCS_DIM1
 70
     0
  0
APPID
  5
70
330
9
100
AcDbSymbolTableRecord
100
AcDbRegAppTableRecord
  2
McsXdata5
 70
     0
  0
APPID
  5
83
330
9
100
AcDbSymbolTableRecord
100
AcDbRegAppTableRecord
  2
MCS_PARAMS_DATA
 70
     0
  0
APPID
  5
85
330
9
100
AcDbSymbolTableRecord
100
AcDbRegAppTableRecord
  2
MC_VERSION_DATA
 70
     0
  0
APPID
  5
AF2
330
9
100
AcDbSymbolTableRecord
100
AcDbRegAppTableRecord
  2
ACAD_DSTYLE_DIM_LINETYPE
 70
     0
  0
APPID
  5
AF3
330
9
100
AcDbSymbolTableRecord
100
AcDbRegAppTableRecord
  2
ACAD_DSTYLE_DIM_EXT1_LINETYPE
 70
     0
  0
APPID
  5
AF4
330
9
100
AcDbSymbolTableRecord
100
AcDbRegAppTableRecord
  2
ACAD_DSTYLE_DIM_EXT2_LINETYPE
 70
     0
  0
APPID
  5
AF5
330
9
100
AcDbSymbolTableRecord
100
AcDbRegAppTableRecord
  2
ACAD_DSTYLE_DIMARC_LENGTH_SYMBOL
 70
     0
  0
APPID
  5
BB7
330
9
100
AcDbSymbolTableRecord
100
AcDbRegAppTableRecord
  2
ACAD_PSEXT
 70
     0
  0
ENDTAB
  0
TABLE
  2
DIMSTYLE
  5
A
330
0
100
AcDbSymbolTable
 70
     2
100
AcDbDimStyleTable
  0
DIMSTYLE
105
27
102
{ACAD_REACTORS
330
563
330
73F
330
772
330
7A8
330
7F7
330
806
330
959
330
97E
102
}
330
A
100
AcDbSymbolTableRecord
100
AcDbDimStyleTableRecord
  2
ISO-25
 70
     0
 41
0.4
 42
0.625
 43
3.75
 44
1.25
 77
     1
 78
     8
140
0.4
141
2.5
143
0.03937
147
0.625
171
     3
172
     1
176
     5
177
     4
271
     2
178
     5
271
     2
272
     2
274
     3
278
    44
283
     0
284
     8
340
11
1001
ACAD_DSTYLE_DIM_LINETYPE
1070
   380
1005
15
1001
ACAD_DSTYLE_DIM_EXT1_LINETYPE
1070
   381
1005
15
1001
ACAD_DSTYLE_DIM_EXT2_LINETYPE
1070
   382
1005
15
  0
DIMSTYLE
105
315
330
A
100
AcDbSymbolTableRecord
100
AcDbDimStyleTableRecord
  2
Copia diISO-25
 70
     0
 41
2.5
 42
0.625
 43
2.0
 44
1.25
 77
     1
 78
     8
140
2.0
141
2.5
143
0.03937
147
0.625
171
     3
172
     1
176
     5
271
     2
178
     5
271
     2
272
     2
274
     3
278
    44
283
     0
284
     8
340
11
1001
ACAD_DSTYLE_DIMARC_LENGTH_SYMBOL
1070
   379
1070
     2
1001
ACAD_DSTYLE_DIM_LINETYPE
1070
   380
1005
15
1001
ACAD_DSTYLE_DIM_EXT1_LINETYPE
1070
   381
1005
15
1001
ACAD_DSTYLE_DIM_EXT2_LINETYPE
1070
   382
1005
15
  0
ENDTAB
  0
TABLE
  2
BLOCK_RECORD
  5
1
330
0
100
AcDbSymbolTable
 70
    87
  0
BLOCK_RECORD
  5
1F
102
{ACAD_XDICTIONARY
360
73
102
}
330
1
100
AcDbSymbolTableRecord
100
AcDbBlockTableRecord
  2
*Model_Space
340
22
  0
BLOCK_RECORD
  5
1B
330
1
100
AcDbSymbolTableRecord
100
AcDbBlockTableRecord
  2
*Paper_Space
340
1E
  0
BLOCK_RECORD
  5
23
330
1
100
AcDbSymbolTableRecord
100
AcDbBlockTableRecord
  2
*Paper_Space0
340
26
  0
BLOCK_RECORD
  5
1BD
330
1
100
AcDbSymbolTableRecord
100
AcDbBlockTableRecord
  2
*D1
340
0
  0
BLOCK_RECORD
  5
1D0
330
1
100
AcDbSymbolTableRecord
100
AcDbBlockTableRecord
  2
*D2
340
0
  0
BLOCK_RECORD
  5
1E1
330
1
100
AcDbSymbolTableRecord
100
AcDbBlockTableRecord
  2
*D3
340
0
  0
BLOCK_RECORD
  5
1F6
330
1
100
AcDbSymbolTableRecord
100
AcDbBlockTableRecord
  2
*D4
340
0
  0
BLOCK_RECORD
  5
207
330
1
100
AcDbSymbolTableRecord
100
AcDbBlockTableRecord
  2
*D5
340
0
  0
BLOCK_RECORD
  5
219
330
1
100
AcDbSymbolTableRecord
100
AcDbBlockTableRecord
  2
*D6
340
0
  0
BLOCK_RECORD
  5
230
330
1
100
AcDbSymbolTableRecord
100
AcDbBlockTableRecord
  2
*D7
340
0
  0
BLOCK_RECORD
  5
2AD
330
1
100
AcDbSymbolTableRecord
100
AcDbBlockTableRecord
  2
*D8
340
0
  0
BLOCK_RECORD
  5
2C0
330
1
100
AcDbSymbolTableRecord
100
AcDbBlockTableRecord
  2
*D9
340
0
  0
BLOCK_RECORD
  5
2D3
330
1
100
AcDbSymbolTableRecord
100
AcDbBlockTableRecord
  2
*D10
340
0
  0
BLOCK_RECORD
  5
2F2
330
1
100
AcDbSymbolTableRecord
100
AcDbBlockTableRecord
  2
*D11
340
0
  0
BLOCK_RECORD
  5
305
330
1
100
AcDbSymbolTableRecord
100
AcDbBlockTableRecord
  2
*D12
340
0
  0
BLOCK_RECORD
  5
317
330
1
100
AcDbSymbolTableRecord
100
AcDbBlockTableRecord
  2
*D13
340
0
  0
BLOCK_RECORD
  5
326
330
1
100
AcDbSymbolTableRecord
100
AcDbBlockTableRecord
  2
*D14
340
0
  0
BLOCK_RECORD
  5
339
330
1
100
AcDbSymbolTableRecord
100
AcDbBlockTableRecord
  2
*D15
340
0
  0
BLOCK_RECORD
  5
34A
330
1
100
AcDbSymbolTableRecord
100
AcDbBlockTableRecord
  2
*D16
340
0
  0
BLOCK_RECORD
  5
35D
330
1
100
AcDbSymbolTableRecord
100
AcDbBlockTableRecord
  2
*D17
340
0
  0
BLOCK_RECORD
  5
36E
330
1
100
AcDbSymbolTableRecord
100
AcDbBlockTableRecord
  2
*D18
340
0
  0
BLOCK_RECORD
  5
381
330
1
100
AcDbSymbolTableRecord
100
AcDbBlockTableRecord
  2
*D19
340
0
  0
BLOCK_RECORD
  5
392
330
1
100
AcDbSymbolTableRecord
100
AcDbBlockTableRecord
  2
*D20
340
0
  0
BLOCK_RECORD
  5
3A5
330
1
100
AcDbSymbolTableRecord
100
AcDbBlockTableRecord
  2
*D21
340
0
  0
BLOCK_RECORD
  5
3B6
330
1
100
AcDbSymbolTableRecord
100
AcDbBlockTableRecord
  2
*D22
340
0
  0
BLOCK_RECORD
  5
3C6
330
1
100
AcDbSymbolTableRecord
100
AcDbBlockTableRecord
  2
_DotSmall
340
0
102
{BLKREFS
331
3AC
331
3BF
331
3D5
331
3D6
331
3E8
331
535
331
549
102
}
  0
BLOCK_RECORD
  5
3CD
330
1
100
AcDbSymbolTableRecord
100
AcDbBlockTableRecord
  2
*D24
340
0
  0
BLOCK_RECORD
  5
3E1
330
1
100
AcDbSymbolTableRecord
100
AcDbBlockTableRecord
  2
*D25
340
0
  0
BLOCK_RECORD
  5
3F4
330
1
100
AcDbSymbolTableRecord
100
AcDbBlockTableRecord
  2
*D26
340
0
  0
BLOCK_RECORD
  5
447
330
1
100
AcDbSymbolTableRecord
100
AcDbBlockTableRecord
  2
*D27
340
0
  0
BLOCK_RECORD
  5
45A
330
1
100
AcDbSymbolTableRecord
100
AcDbBlockTableRecord
  2
*D28
340
0
  0
BLOCK_RECORD
  5
477
330
1
100
AcDbSymbolTableRecord
100
AcDbBlockTableRecord
  2
*D29
340
0
  0
BLOCK_RECORD
  5
48A
330
1
100
AcDbSymbolTableRecord
100
AcDbBlockTableRecord
  2
*D30
340
0
  0
BLOCK_RECORD
  5
49B
330
1
100
AcDbSymbolTableRecord
100
AcDbBlockTableRecord
  2
*D31
340
0
  0
BLOCK_RECORD
  5
4AC
330
1
100
AcDbSymbolTableRecord
100
AcDbBlockTableRecord
  2
*D32
340
0
  0
BLOCK_RECORD
  5
4BE
330
1
100
AcDbSymbolTableRecord
100
AcDbBlockTableRecord
  2
*D33
340
0
  0
BLOCK_RECORD
  5
4D2
330
1
100
AcDbSymbolTableRecord
100
AcDbBlockTableRecord
  2
*D34
340
0
  0
BLOCK_RECORD
  5
4E1
330
1
100
AcDbSymbolTableRecord
100
AcDbBlockTableRecord
  2
*D35
340
0
  0
BLOCK_RECORD
  5
4F4
330
1
100
AcDbSymbolTableRecord
100
AcDbBlockTableRecord
  2
*D36
340
0
  0
BLOCK_RECORD
  5
506
330
1
100
AcDbSymbolTableRecord
100
AcDbBlockTableRecord
  2
*D37
340
0
  0
BLOCK_RECORD
  5
519
330
1
100
AcDbSymbolTableRecord
100
AcDbBlockTableRecord
  2
*D38
340
0
  0
BLOCK_RECORD
  5
52E
330
1
100
AcDbSymbolTableRecord
100
AcDbBlockTableRecord
  2
*D39
340
0
  0
BLOCK_RECORD
  5
540
330
1
100
AcDbSymbolTableRecord
100
AcDbBlockTableRecord
  2
*D40
340
0
  0
BLOCK_RECORD
  5
552
330
1
100
AcDbSymbolTableRecord
100
AcDbBlockTableRecord
  2
*D41
340
0
  0
BLOCK_RECORD
  5
564
330
1
100
AcDbSymbolTableRecord
100
AcDbBlockTableRecord
  2
*D42
340
0
  0
BLOCK_RECORD
  5
573
330
1
100
AcDbSymbolTableRecord
100
AcDbBlockTableRecord
  2
*D43
340
0
  0
BLOCK_RECORD
  5
584
330
1
100
AcDbSymbolTableRecord
100
AcDbBlockTableRecord
  2
*D44
340
0
  0
BLOCK_RECORD
  5
598
330
1
100
AcDbSymbolTableRecord
100
AcDbBlockTableRecord
  2
*D45
340
0
  0
BLOCK_RECORD
  5
5A7
330
1
100
AcDbSymbolTableRecord
100
AcDbBlockTableRecord
  2
*D46
340
0
  0
BLOCK_RECORD
  5
5BA
330
1
100
AcDbSymbolTableRecord
100
AcDbBlockTableRecord
  2
*D47
340
0
  0
BLOCK_RECORD
  5
5CB
330
1
100
AcDbSymbolTableRecord
100
AcDbBlockTableRecord
  2
*D48
340
0
  0
BLOCK_RECORD
  5
5DE
330
1
100
AcDbSymbolTableRecord
100
AcDbBlockTableRecord
  2
*D49
340
0
  0
BLOCK_RECORD
  5
5EF
330
1
100
AcDbSymbolTableRecord
100
AcDbBlockTableRecord
  2
*D50
340
0
  0
BLOCK_RECORD
  5
602
330
1
100
AcDbSymbolTableRecord
100
AcDbBlockTableRecord
  2
*D51
340
0
  0
BLOCK_RECORD
  5
740
330
1
100
AcDbSymbolTableRecord
100
AcDbBlockTableRecord
  2
*D52
340
0
  0
BLOCK_RECORD
  5
750
330
1
100
AcDbSymbolTableRecord
100
AcDbBlockTableRecord
  2
*D53
340
0
  0
BLOCK_RECORD
  5
760
330
1
100
AcDbSymbolTableRecord
100
AcDbBlockTableRecord
  2
*D54
340
0
  0
BLOCK_RECORD
  5
773
330
1
100
AcDbSymbolTableRecord
100
AcDbBlockTableRecord
  2
*D55
340
0
  0
BLOCK_RECORD
  5
784
330
1
100
AcDbSymbolTableRecord
100
AcDbBlockTableRecord
  2
*D56
340
0
  0
BLOCK_RECORD
  5
796
330
1
100
AcDbSymbolTableRecord
100
AcDbBlockTableRecord
  2
*D57
340
0
  0
BLOCK_RECORD
  5
7A9
330
1
100
AcDbSymbolTableRecord
100
AcDbBlockTableRecord
  2
*D58
340
0
  0
BLOCK_RECORD
  5
7BD
330
1
100
AcDbSymbolTableRecord
100
AcDbBlockTableRecord
  2
*D59
340
0
  0
BLOCK_RECORD
  5
7D2
330
1
100
AcDbSymbolTableRecord
100
AcDbBlockTableRecord
  2
*D60
340
0
  0
BLOCK_RECORD
  5
7E5
330
1
100
AcDbSymbolTableRecord
100
AcDbBlockTableRecord
  2
*D61
340
0
  0
BLOCK_RECORD
  5
7F8
330
1
100
AcDbSymbolTableRecord
100
AcDbBlockTableRecord
  2
*D62
340
0
  0
BLOCK_RECORD
  5
807
330
1
100
AcDbSymbolTableRecord
100
AcDbBlockTableRecord
  2
*D63
340
0
  0
BLOCK_RECORD
  5
81C
330
1
100
AcDbSymbolTableRecord
100
AcDbBlockTableRecord
  2
*D64
340
0
  0
BLOCK_RECORD
  5
82E
330
1
100
AcDbSymbolTableRecord
100
AcDbBlockTableRecord
  2
*D65
340
0
  0
BLOCK_RECORD
  5
841
330
1
100
AcDbSymbolTableRecord
100
AcDbBlockTableRecord
  2
*D66
340
0
  0
BLOCK_RECORD
  5
853
330
1
100
AcDbSymbolTableRecord
100
AcDbBlockTableRecord
  2
*D67
340
0
  0
BLOCK_RECORD
  5
866
330
1
100
AcDbSymbolTableRecord
100
AcDbBlockTableRecord
  2
*D68
340
0
  0
BLOCK_RECORD
  5
878
330
1
100
AcDbSymbolTableRecord
100
AcDbBlockTableRecord
  2
*D69
340
0
  0
BLOCK_RECORD
  5
88B
330
1
100
AcDbSymbolTableRecord
100
AcDbBlockTableRecord
  2
*D70
340
0
  0
BLOCK_RECORD
  5
89D
330
1
100
AcDbSymbolTableRecord
100
AcDbBlockTableRecord
  2
*D71
340
0
  0
BLOCK_RECORD
  5
8B4
330
1
100
AcDbSymbolTableRecord
100
AcDbBlockTableRecord
  2
*D72
340
0
  0
BLOCK_RECORD
  5
8C7
330
1
100
AcDbSymbolTableRecord
100
AcDbBlockTableRecord
  2
*D73
340
0
  0
BLOCK_RECORD
  5
8D9
330
1
100
AcDbSymbolTableRecord
100
AcDbBlockTableRecord
  2
*D74
340
0
  0
BLOCK_RECORD
  5
8EC
330
1
100
AcDbSymbolTableRecord
100
AcDbBlockTableRecord
  2
*D75
340
0
  0
BLOCK_RECORD
  5
8FD
330
1
100
AcDbSymbolTableRecord
100
AcDbBlockTableRecord
  2
*D76
340
0
  0
BLOCK_RECORD
  5
910
330
1
100
AcDbSymbolTableRecord
100
AcDbBlockTableRecord
  2
*D77
340
0
  0
BLOCK_RECORD
  5
922
330
1
100
AcDbSymbolTableRecord
100
AcDbBlockTableRecord
  2
*D78
340
0
  0
BLOCK_RECORD
  5
935
330
1
100
AcDbSymbolTableRecord
100
AcDbBlockTableRecord
  2
*D79
340
0
  0
BLOCK_RECORD
  5
947
330
1
100
AcDbSymbolTableRecord
100
AcDbBlockTableRecord
  2
*D80
340
0
  0
BLOCK_RECORD
  5
95A
330
1
100
AcDbSymbolTableRecord
100
AcDbBlockTableRecord
  2
*D81
340
0
  0
BLOCK_RECORD
  5
96C
330
1
100
AcDbSymbolTableRecord
100
AcDbBlockTableRecord
  2
*D82
340
0
  0
BLOCK_RECORD
  5
97F
330
1
100
AcDbSymbolTableRecord
100
AcDbBlockTableRecord
  2
*D83
340
0
  0
BLOCK_RECORD
  5
9D6
330
1
100
AcDbSymbolTableRecord
100
AcDbBlockTableRecord
  2
*D84
340
0
  0
BLOCK_RECORD
  5
9E7
330
1
100
AcDbSymbolTableRecord
100
AcDbBlockTableRecord
  2
*D85
340
0
  0
BLOCK_RECORD
  5
9F8
330
1
100
AcDbSymbolTableRecord
100
AcDbBlockTableRecord
  2
*D86
340
0
  0
ENDTAB
  0
ENDSEC
  0
SECTION
  2
BLOCKS
  0
BLOCK
  5
20
330
1F
100
AcDbEntity
  8
0
100
AcDbBlockBegin
  2
*Model_Space
 70
     0
 10
0.0
 20
0.0
 30
0.0
  3
*Model_Space
  1
*Model_Space
  0
ENDBLK
  5
21
330
1F
100
AcDbEntity
  8
0
100
AcDbBlockEnd
  0
BLOCK
  5
1C
330
1B
100
AcDbEntity
 67
     1
  8
0
100
AcDbBlockBegin
  2
*Paper_Space
 70
     0
 10
0.0
 20
0.0
 30
0.0
  3
*Paper_Space
  1
*Paper_Space
  0
ENDBLK
  5
1D
330
1B
100
AcDbEntity
 67
     1
  8
0
100
AcDbBlockEnd
  0
BLOCK
  5
24
330
23
100
AcDbEntity
  8
0
100
AcDbBlockBegin
  2
*Paper_Space0
 70
     0
 10
0.0
 20
0.0
 30
0.0
  3
*Paper_Space0
  1
*Paper_Space0
  0
ENDBLK
  5
25
330
23
100
AcDbEntity
  8
0
100
AcDbBlockEnd
  0
BLOCK
  5
1BE
330
1BD
100
AcDbEntity
  8
0
100
AcDbBlockBegin
  2
*D1
 70
     1
 10
0.0
 20
0.0
 30
0.0
  3
*D1
  1
*D1
  0
LINE
  5
1C0
330
1BD
100
AcDbEntity
  8
0
 62
     0
370
    -2
100
AcDbLine
 10
726.011764
 20
185.447831
 30
0.0
 11
724.409726
 21
247.927295
 31
0.0
  0
LINE
  5
1C1
330
1BD
100
AcDbEntity
  8
0
 62
     0
370
    -2
100
AcDbLine
 10
857.488891
 20
188.819039
 30
0.0
 11
855.886854
 21
251.298503
 31
0.0
  0
LINE
  5
1C2
330
1BD
100
AcDbEntity
  8
0
 62
     0
370
    -2
100
AcDbLine
 10
1109.008787
 20
132.747725
 30
0.0
 11
2608.515933
 21
171.196626
 31
0.0
  0
LINE
  5
1C3
330
1BD
100
AcDbEntity
  8
0
 62
     0
370
    -2
100
AcDbLine
 10
727.613801
 20
122.968366
 30
0.0
 11
859.090929
 21
126.339575
 31
0.0
  0
LINE
  5
1C4
330
1BD
100
AcDbEntity
  8
0
 62
     0
370
    -2
100
AcDbLine
 10
477.695943
 20
116.560216
 30
0.0
 11
227.778086
 21
110.152066
 31
0.0
  0
SOLID
  5
1C5
330
1BD
100
AcDbEntity
  8
0
 62
     0
100
AcDbTrace
 10
478.763968
 20
74.90724
 30
0.0
 11
476.627918
 21
158.213192
 31
0.0
 12
727.613801
 22
122.968366
 32
0.0
 13
727.613801
 23
122.968366
 33
0.0
  0
SOLID
  5
1C6
330
1BD
100
AcDbEntity
  8
0
 62
     0
100
AcDbTrace
 10
1107.940762
 20
174.400701
 30
0.0
 11
1110.076812
 21
91.094748
 31
0.0
 12
859.090929
 22
126.339575
 32
0.0
 13
859.090929
 23
126.339575
 33
0.0
  0
MTEXT
  5
1C7
330
1BD
100
AcDbEntity
  8
0
 62
     0
 48
100.0
100
AcDbMText
 10
1978.381163
 20
363.441132
 30
0.0
 40
250.0
 41
0.0
 71
     5
 72
     1
  1
131,52
 11
0.9996714309094813
 21
0.0256326007925512
 31
0.0
 73
     1
 44
1.0
  0
POINT
  5
1C8
330
1BD
100
AcDbEntity
  8
Defpoints
 62
     0
100
AcDbPoint
 10
727.613801
 20
122.968366
 30
0.0
  0
POINT
  5
1CD
330
1BD
100
AcDbEntity
  8
Defpoints
 62
     0
100
AcDbPoint
 10
859.090929
 20
126.339575
 30
0.0
  0
POINT
  5
1CE
330
1BD
100
AcDbEntity
  8
Defpoints
 62
     0
100
AcDbPoint
 10
859.090929
 20
126.339575
 30
0.0
  0
ENDBLK
  5
1BF
330
1BD
100
AcDbEntity
  8
0
100
AcDbBlockEnd
  0
BLOCK
  5
1D1
330
1D0
100
AcDbEntity
  8
0
100
AcDbBlockBegin
  2
*D2
 70
     1
 10
0.0
 20
0.0
 30
0.0
  3
*D2
  1
*D2
  0
LINE
  5
1D3
330
1D0
100
AcDbEntity
  8
0
 62
     0
370
    -2
100
AcDbLine
 10
447.484813
 20
66.533501
 30
0.0
 11
447.484813
 21
129.033501
 31
0.0
  0
LINE
  5
1D4
330
1D0
100
AcDbEntity
  8
0
 62
     0
370
    -2
100
AcDbLine
 10
1247.484813
 20
66.533501
 30
0.0
 11
1247.484813
 21
129.033501
 31
0.0
  0
LINE
  5
1D5
330
1D0
100
AcDbEntity
  8
0
 62
     0
370
    -2
100
AcDbLine
 10
697.484813
 20
4.033501
 30
0.0
 11
997.484813
 21
4.033501
 31
0.0
  0
SOLID
  5
1D6
330
1D0
100
AcDbEntity
  8
0
 62
     0
100
AcDbTrace
 10
697.484813
 20
45.700168
 30
0.0
 11
697.484813
 21
-37.633165
 31
0.0
 12
447.484813
 22
4.033501
 32
0.0
 13
447.484813
 23
4.033501
 33
0.0
  0
SOLID
  5
1D7
330
1D0
100
AcDbEntity
  8
0
 62
     0
100
AcDbTrace
 10
997.484813
 20
-37.633165
 30
0.0
 11
997.484813
 21
45.700168
 31
0.0
 12
1247.484813
 22
4.033501
 32
0.0
 13
1247.484813
 23
4.033501
 33
0.0
  0
MTEXT
  5
1D8
330
1D0
100
AcDbEntity
  8
0
 62
     0
 48
100.0
100
AcDbMText
 10
847.484813
 20
191.533501
 30
0.0
 40
250.0
 41
0.0
 71
     5
 72
     1
  1
800
 73
     1
 44
1.0
  0
POINT
  5
1D9
330
1D0
100
AcDbEntity
  8
Defpoints
 62
     0
100
AcDbPoint
 10
447.484813
 20
4.033501
 30
0.0
  0
POINT
  5
1DA
330
1D0
100
AcDbEntity
  8
Defpoints
 62
     0
100
AcDbPoint
 10
1247.484813
 20
4.033501
 30
0.0
  0
POINT
  5
1DB
330
1D0
100
AcDbEntity
  8
Defpoints
 62
     0
100
AcDbPoint
 10
1247.484813
 20
4.033501
 30
0.0
  0
ENDBLK
  5
1D2
330
1D0
100
AcDbEntity
  8
0
100
AcDbBlockEnd
  0
BLOCK
  5
1E2
330
1E1
100
AcDbEntity
  8
0
100
AcDbBlockBegin
  2
*D3
 70
     1
 10
0.0
 20
0.0
 30
0.0
  3
*D3
  1
*D3
  0
LINE
  5
1E4
330
1E1
100
AcDbEntity
  8
0
 62
     0
370
    -2
100
AcDbLine
 10
-0.332959
 20
62.610986
 30
0.0
 11
-0.332959
 21
125.110986
 31
0.0
  0
LINE
  5
1E5
330
1E1
100
AcDbEntity
  8
0
 62
     0
370
    -2
100
AcDbLine
 10
1249.667041
 20
62.610986
 30
0.0
 11
1249.667041
 21
125.110986
 31
0.0
  0
LINE
  5
1E6
330
1E1
100
AcDbEntity
  8
0
 62
     0
370
    -2
100
AcDbLine
 10
249.667041
 20
0.110986
 30
0.0
 11
999.667041
 21
0.110986
 31
0.0
  0
SOLID
  5
1E7
330
1E1
100
AcDbEntity
  8
0
 62
     0
100
AcDbTrace
 10
249.667041
 20
41.777653
 30
0.0
 11
249.667041
 21
-41.55568
 31
0.0
 12
-0.332959
 22
0.110986
 32
0.0
 13
-0.332959
 23
0.110986
 33
0.0
  0
SOLID
  5
1E8
330
1E1
100
AcDbEntity
  8
0
 62
     0
100
AcDbTrace
 10
999.667041
 20
-41.55568
 30
0.0
 11
999.667041
 21
41.777653
 31
0.0
 12
1249.667041
 22
0.110986
 32
0.0
 13
1249.667041
 23
0.110986
 33
0.0
  0
MTEXT
  5
1E9
330
1E1
100
AcDbEntity
  8
0
 62
     0
 48
100.0
100
AcDbMText
 10
624.667041
 20
187.610986
 30
0.0
 40
250.0
 41
0.0
 71
     5
 72
     1
  1
1250
 73
     1
 44
1.0
  0
POINT
  5
1EA
330
1E1
100
AcDbEntity
  8
Defpoints
 62
     0
100
AcDbPoint
 10
-0.332959
 20
0.110986
 30
0.0
  0
POINT
  5
1EB
330
1E1
100
AcDbEntity
  8
Defpoints
 62
     0
100
AcDbPoint
 10
1249.667041
 20
0.110986
 30
0.0
  0
POINT
  5
1EC
330
1E1
100
AcDbEntity
  8
Defpoints
 62
     0
100
AcDbPoint
 10
1249.667041
 20
0.110986
 30
0.0
  0
ENDBLK
  5
1E3
330
1E1
100
AcDbEntity
  8
0
100
AcDbBlockEnd
  0
BLOCK
  5
1F7
330
1F6
100
AcDbEntity
  8
0
100
AcDbBlockBegin
  2
*D4
 70
     1
 10
0.0
 20
0.0
 30
0.0
  3
*D4
  1
*D4
  0
LINE
  5
1F9
330
1F6
100
AcDbEntity
  8
0
 62
     0
370
    -2
100
AcDbLine
 10
722.640228
 20
126.867608
 30
0.0
 11
722.640228
 21
189.367608
 31
0.0
  0
LINE
  5
1FA
330
1F6
100
AcDbEntity
  8
0
 62
     0
370
    -2
100
AcDbLine
 10
888.953176
 20
4.11508
 30
0.0
 11
888.953176
 21
-60.632392
 31
0.0
  0
LINE
  5
1FB
330
1F6
100
AcDbEntity
  8
0
 62
     0
370
    -2
100
AcDbLine
 10
1138.953176
 20
64.367608
 30
0.0
 11
2638.953176
 21
64.367608
 31
0.0
  0
LINE
  5
1FC
330
1F6
100
AcDbEntity
  8
0
 62
     0
370
    -2
100
AcDbLine
 10
722.640228
 20
64.367608
 30
0.0
 11
888.953176
 21
64.367608
 31
0.0
  0
LINE
  5
1FD
330
1F6
100
AcDbEntity
  8
0
 62
     0
370
    -2
100
AcDbLine
 10
472.640228
 20
64.367608
 30
0.0
 11
222.640228
 21
64.367608
 31
0.0
  0
SOLID
  5
1FE
330
1F6
100
AcDbEntity
  8
0
 62
     0
100
AcDbTrace
 10
472.640228
 20
22.700941
 30
0.0
 11
472.640228
 21
106.034274
 31
0.0
 12
722.640228
 22
64.367608
 32
0.0
 13
722.640228
 23
64.367608
 33
0.0
  0
SOLID
  5
1FF
330
1F6
100
AcDbEntity
  8
0
 62
     0
100
AcDbTrace
 10
1138.953176
 20
106.034274
 30
0.0
 11
1138.953176
 21
22.700941
 31
0.0
 12
888.953176
 22
64.367608
 32
0.0
 13
888.953176
 23
64.367608
 33
0.0
  0
MTEXT
  5
200
330
1F6
100
AcDbEntity
  8
0
 62
     0
 48
100.0
100
AcDbMText
 10
2013.953176
 20
272.700941
 30
0.0
 40
250.0
 41
0.0
 71
     5
 72
     1
  1
166,31
 73
     1
 44
1.0
  0
POINT
  5
201
330
1F6
100
AcDbEntity
  8
Defpoints
 62
     0
100
AcDbPoint
 10
722.640228
 20
64.367608
 30
0.0
  0
POINT
  5
204
330
1F6
100
AcDbEntity
  8
Defpoints
 62
     0
100
AcDbPoint
 10
888.953176
 20
66.61508
 30
0.0
  0
POINT
  5
205
330
1F6
100
AcDbEntity
  8
Defpoints
 62
     0
100
AcDbPoint
 10
888.953176
 20
64.367608
 30
0.0
  0
ENDBLK
  5
1F8
330
1F6
100
AcDbEntity
  8
0
100
AcDbBlockEnd
  0
BLOCK
  5
208
330
207
100
AcDbEntity
  8
0
100
AcDbBlockBegin
  2
*D5
 70
     1
 10
0.0
 20
0.0
 30
0.0
  3
*D5
  1
*D5
  0
LINE
  5
20A
330
207
100
AcDbEntity
  8
0
 62
     0
370
    -2
100
AcDbLine
 10
992.3369
 20
-168.940285
 30
0.0
 11
992.3369
 21
-261.687516
 31
0.0
  0
LINE
  5
20B
330
207
100
AcDbEntity
  8
0
 62
     0
370
    -2
100
AcDbLine
 10
443.07965
 20
-199.187516
 30
0.0
 11
443.07965
 21
-261.687516
 31
0.0
  0
LINE
  5
20C
330
207
100
AcDbEntity
  8
0
 62
     0
370
    -2
100
AcDbLine
 10
193.07965
 20
-136.687516
 30
0.0
 11
-1473.587017
 21
-136.687516
 31
0.0
  0
LINE
  5
20D
330
207
100
AcDbEntity
  8
0
 62
     0
370
    -2
100
AcDbLine
 10
992.3369
 20
-136.687516
 30
0.0
 11
443.07965
 21
-136.687516
 31
0.0
  0
LINE
  5
20E
330
207
100
AcDbEntity
  8
0
 62
     0
370
    -2
100
AcDbLine
 10
1242.3369
 20
-136.687516
 30
0.0
 11
1492.3369
 21
-136.687516
 31
0.0
  0
SOLID
  5
20F
330
207
100
AcDbEntity
  8
0
 62
     0
100
AcDbTrace
 10
1242.3369
 20
-95.020849
 30
0.0
 11
1242.3369
 21
-178.354182
 31
0.0
 12
992.3369
 22
-136.687516
 32
0.0
 13
992.3369
 23
-136.687516
 33
0.0
  0
SOLID
  5
210
330
207
100
AcDbEntity
  8
0
 62
     0
100
AcDbTrace
 10
193.07965
 20
-178.354182
 30
0.0
 11
193.07965
 21
-95.020849
 31
0.0
 12
443.07965
 22
-136.687516
 32
0.0
 13
443.07965
 23
-136.687516
 33
0.0
  0
MTEXT
  5
211
330
207
100
AcDbEntity
  8
0
 62
     0
 48
100.0
100
AcDbMText
 10
-765.253683
 20
71.645818
 30
0.0
 40
250.0
 41
0.0
 71
     5
 72
     1
  1
549,26
 73
     1
 44
1.0
  0
POINT
  5
212
330
207
100
AcDbEntity
  8
Defpoints
 62
     0
100
AcDbPoint
 10
992.3369
 20
-106.440285
 30
0.0
  0
POINT
  5
215
330
207
100
AcDbEntity
  8
Defpoints
 62
     0
100
AcDbPoint
 10
443.07965
 20
-136.687516
 30
0.0
  0
POINT
  5
217
330
207
100
AcDbEntity
  8
Defpoints
 62
     0
100
AcDbPoint
 10
443.07965
 20
-136.687516
 30
0.0
  0
ENDBLK
  5
209
330
207
100
AcDbEntity
  8
0
100
AcDbBlockEnd
  0
BLOCK
  5
21A
330
219
100
AcDbEntity
  8
0
100
AcDbBlockBegin
  2
*D6
 70
     1
 10
0.0
 20
0.0
 30
0.0
  3
*D6
  1
*D6
  0
LINE
  5
21C
330
219
100
AcDbEntity
  8
0
 62
     0
370
    -2
100
AcDbLine
 10
-0.332959
 20
862.134403
 30
0.0
 11
-0.332959
 21
925.013607
 31
0.0
  0
LINE
  5
21D
330
219
100
AcDbEntity
  8
0
 62
     0
370
    -2
100
AcDbLine
 10
1249.667041
 20
862.513607
 30
0.0
 11
1249.667041
 21
925.013607
 31
0.0
  0
LINE
  5
21E
330
219
100
AcDbEntity
  8
0
 62
     0
370
    -2
100
AcDbLine
 10
249.667041
 20
800.013607
 30
0.0
 11
999.667041
 21
800.013607
 31
0.0
  0
SOLID
  5
21F
330
219
100
AcDbEntity
  8
0
 62
     0
100
AcDbTrace
 10
249.667041
 20
841.680273
 30
0.0
 11
249.667041
 21
758.34694
 31
0.0
 12
-0.332959
 22
800.013607
 32
0.0
 13
-0.332959
 23
800.013607
 33
0.0
  0
SOLID
  5
220
330
219
100
AcDbEntity
  8
0
 62
     0
100
AcDbTrace
 10
999.667041
 20
758.34694
 30
0.0
 11
999.667041
 21
841.680273
 31
0.0
 12
1249.667041
 22
800.013607
 32
0.0
 13
1249.667041
 23
800.013607
 33
0.0
  0
MTEXT
  5
221
330
219
100
AcDbEntity
  8
0
 62
     0
 48
100.0
100
AcDbMText
 10
624.667041
 20
987.513607
 30
0.0
 40
250.0
 41
0.0
 71
     5
 72
     1
  1
1250
 73
     1
 44
1.0
  0
POINT
  5
222
330
219
100
AcDbEntity
  8
Defpoints
 62
     0
100
AcDbPoint
 10
-0.332959
 20
799.634403
 30
0.0
  0
POINT
  5
223
330
219
100
AcDbEntity
  8
Defpoints
 62
     0
100
AcDbPoint
 10
1249.667041
 20
800.013607
 30
0.0
  0
POINT
  5
224
330
219
100
AcDbEntity
  8
Defpoints
 62
     0
100
AcDbPoint
 10
1249.667041
 20
800.013607
 30
0.0
  0
ENDBLK
  5
21B
330
219
100
AcDbEntity
  8
0
100
AcDbBlockEnd
  0
BLOCK
  5
231
330
230
100
AcDbEntity
  8
0
100
AcDbBlockBegin
  2
*D7
 70
     1
 10
0.0
 20
0.0
 30
0.0
  3
*D7
  1
*D7
  0
LINE
  5
233
330
230
100
AcDbEntity
  8
0
 62
     0
370
    -2
100
AcDbLine
 10
447.484813
 20
66.533501
 30
0.0
 11
447.484813
 21
129.033501
 31
0.0
  0
LINE
  5
234
330
230
100
AcDbEntity
  8
0
 62
     0
370
    -2
100
AcDbLine
 10
1247.484813
 20
66.533501
 30
0.0
 11
1247.484813
 21
129.033501
 31
0.0
  0
LINE
  5
235
330
230
100
AcDbEntity
  8
0
 62
     0
370
    -2
100
AcDbLine
 10
697.484813
 20
4.033501
 30
0.0
 11
997.484813
 21
4.033501
 31
0.0
  0
SOLID
  5
236
330
230
100
AcDbEntity
  8
0
 62
     0
100
AcDbTrace
 10
697.484813
 20
45.700168
 30
0.0
 11
697.484813
 21
-37.633165
 31
0.0
 12
447.484813
 22
4.033501
 32
0.0
 13
447.484813
 23
4.033501
 33
0.0
  0
SOLID
  5
237
330
230
100
AcDbEntity
  8
0
 62
     0
100
AcDbTrace
 10
997.484813
 20
-37.633165
 30
0.0
 11
997.484813
 21
45.700168
 31
0.0
 12
1247.484813
 22
4.033501
 32
0.0
 13
1247.484813
 23
4.033501
 33
0.0
  0
MTEXT
  5
238
330
230
100
AcDbEntity
  8
0
 62
     0
 48
100.0
100
AcDbMText
 10
847.484813
 20
191.533501
 30
0.0
 40
250.0
 41
0.0
 71
     5
 72
     1
  1
800
 73
     1
 44
1.0
  0
POINT
  5
239
330
230
100
AcDbEntity
  8
Defpoints
 62
     0
100
AcDbPoint
 10
447.484813
 20
4.033501
 30
0.0
  0
POINT
  5
23A
330
230
100
AcDbEntity
  8
Defpoints
 62
     0
100
AcDbPoint
 10
1247.484813
 20
4.033501
 30
0.0
  0
POINT
  5
23B
330
230
100
AcDbEntity
  8
Defpoints
 62
     0
100
AcDbPoint
 10
1247.484813
 20
4.033501
 30
0.0
  0
ENDBLK
  5
232
330
230
100
AcDbEntity
  8
0
100
AcDbBlockEnd
  0
BLOCK
  5
2AE
330
2AD
100
AcDbEntity
  8
0
100
AcDbBlockBegin
  2
*D8
 70
     1
 10
0.0
 20
0.0
 30
0.0
  3
*D8
  1
*D8
  0
LINE
  5
2B0
330
2AD
100
AcDbEntity
  8
0
 62
     0
370
    -2
100
AcDbLine
 10
447.484813
 20
66.533501
 30
0.0
 11
447.484813
 21
129.033501
 31
0.0
  0
LINE
  5
2B1
330
2AD
100
AcDbEntity
  8
0
 62
     0
370
    -2
100
AcDbLine
 10
1247.484813
 20
66.533501
 30
0.0
 11
1247.484813
 21
129.033501
 31
0.0
  0
LINE
  5
2B2
330
2AD
100
AcDbEntity
  8
0
 62
     5
370
    -2
100
AcDbLine
 10
697.484813
 20
4.033501
 30
0.0
 11
997.484813
 21
4.033501
 31
0.0
  0
SOLID
  5
2B3
330
2AD
100
AcDbEntity
  8
0
 62
     5
100
AcDbTrace
 10
697.484813
 20
45.700168
 30
0.0
 11
697.484813
 21
-37.633165
 31
0.0
 12
447.484813
 22
4.033501
 32
0.0
 13
447.484813
 23
4.033501
 33
0.0
  0
SOLID
  5
2B4
330
2AD
100
AcDbEntity
  8
0
 62
     5
100
AcDbTrace
 10
997.484813
 20
-37.633165
 30
0.0
 11
997.484813
 21
45.700168
 31
0.0
 12
1247.484813
 22
4.033501
 32
0.0
 13
1247.484813
 23
4.033501
 33
0.0
  0
MTEXT
  5
2B5
330
2AD
100
AcDbEntity
  8
0
 62
     5
 48
100.0
100
AcDbMText
 10
847.484813
 20
229.033501
 30
0.0
 40
200.0
 41
0.0
 71
     5
 72
     1
  1
800
 73
     1
 44
1.0
  0
POINT
  5
2B6
330
2AD
100
AcDbEntity
  8
Defpoints
 62
     0
100
AcDbPoint
 10
447.484813
 20
4.033501
 30
0.0
  0
POINT
  5
2B7
330
2AD
100
AcDbEntity
  8
Defpoints
 62
     0
100
AcDbPoint
 10
1247.484813
 20
4.033501
 30
0.0
  0
POINT
  5
2B8
330
2AD
100
AcDbEntity
  8
Defpoints
 62
     0
100
AcDbPoint
 10
1247.484813
 20
4.033501
 30
0.0
  0
ENDBLK
  5
2AF
330
2AD
100
AcDbEntity
  8
0
100
AcDbBlockEnd
  0
BLOCK
  5
2C1
330
2C0
100
AcDbEntity
  8
0
100
AcDbBlockBegin
  2
*D9
 70
     1
 10
0.0
 20
0.0
 30
0.0
  3
*D9
  1
*D9
  0
LINE
  5
2C3
330
2C0
100
AcDbEntity
  8
0
 62
     0
370
    -2
100
AcDbLine
 10
445.272891
 20
-86.800948
 30
0.0
 11
445.272891
 21
-24.300948
 31
0.0
  0
LINE
  5
2C4
330
2C0
100
AcDbEntity
  8
0
 62
     0
370
    -2
100
AcDbLine
 10
1247.62049
 20
-148.871725
 30
0.0
 11
1247.62049
 21
-274.300948
 31
0.0
  0
LINE
  5
2C5
330
2C0
100
AcDbEntity
  8
0
 62
     5
370
    -2
100
AcDbLine
 10
1247.62049
 20
-149.300948
 30
0.0
 11
2622.62049
 21
-149.300948
 31
0.0
  0
LINE
  5
2C6
330
2C0
100
AcDbEntity
  8
0
 62
     5
370
    -2
100
AcDbLine
 10
695.272891
 20
-149.300948
 30
0.0
 11
997.62049
 21
-149.300948
 31
0.0
  0
SOLID
  5
2C7
330
2C0
100
AcDbEntity
  8
0
 62
     5
100
AcDbTrace
 10
695.272891
 20
-107.634281
 30
0.0
 11
695.272891
 21
-190.967615
 31
0.0
 12
445.272891
 22
-149.300948
 32
0.0
 13
445.272891
 23
-149.300948
 33
0.0
  0
SOLID
  5
2C8
330
2C0
100
AcDbEntity
  8
0
 62
     5
100
AcDbTrace
 10
997.62049
 20
-190.967615
 30
0.0
 11
997.62049
 21
-107.634281
 31
0.0
 12
1247.62049
 22
-149.300948
 32
0.0
 13
1247.62049
 23
-149.300948
 33
0.0
  0
MTEXT
  5
2C9
330
2C0
100
AcDbEntity
  8
0
 62
     5
 48
100.0
100
AcDbMText
 10
2060.12049
 20
29.865719
 30
0.0
 40
200.0
 41
0.0
 71
     5
 72
     1
  1
802,35
 73
     1
 44
1.0
  0
POINT
  5
2CA
330
2C0
100
AcDbEntity
  8
Defpoints
 62
     0
100
AcDbPoint
 10
445.272891
 20
-149.300948
 30
0.0
  0
POINT
  5
2CB
330
2C0
100
AcDbEntity
  8
Defpoints
 62
     0
100
AcDbPoint
 10
1247.62049
 20
-86.371725
 30
0.0
  0
POINT
  5
2D0
330
2C0
100
AcDbEntity
  8
Defpoints
 62
     0
100
AcDbPoint
 10
1247.62049
 20
-149.300948
 30
0.0
  0
ENDBLK
  5
2C2
330
2C0
100
AcDbEntity
  8
0
100
AcDbBlockEnd
  0
BLOCK
  5
2D4
330
2D3
100
AcDbEntity
  8
0
100
AcDbBlockBegin
  2
*D10
 70
     1
 10
0.0
 20
0.0
 30
0.0
  3
*D10
  1
*D10
  0
LINE
  5
2D6
330
2D3
100
AcDbEntity
  8
0
 62
     0
370
    -2
100
AcDbLine
 10
1249.667041
 20
66.027166
 30
0.0
 11
1249.667041
 21
384.739005
 31
0.0
  0
LINE
  5
2D7
330
2D3
100
AcDbEntity
  8
0
 62
     0
370
    -2
100
AcDbLine
 10
1548.781774
 20
322.239005
 30
0.0
 11
1548.781774
 21
384.739005
 31
0.0
  0
LINE
  5
2D8
330
2D3
100
AcDbEntity
  8
0
 62
     0
370
    -2
100
AcDbLine
 10
1798.781774
 20
259.739005
 30
0.0
 11
3298.781774
 21
259.739005
 31
0.0
  0
LINE
  5
2D9
330
2D3
100
AcDbEntity
  8
0
 62
     0
370
    -2
100
AcDbLine
 10
1249.667041
 20
259.739005
 30
0.0
 11
1548.781774
 21
259.739005
 31
0.0
  0
LINE
  5
2DA
330
2D3
100
AcDbEntity
  8
0
 62
     0
370
    -2
100
AcDbLine
 10
999.667041
 20
259.739005
 30
0.0
 11
749.667041
 21
259.739005
 31
0.0
  0
SOLID
  5
2DB
330
2D3
100
AcDbEntity
  8
0
 62
     0
100
AcDbTrace
 10
999.667041
 20
218.072338
 30
0.0
 11
999.667041
 21
301.405671
 31
0.0
 12
1249.667041
 22
259.739005
 32
0.0
 13
1249.667041
 23
259.739005
 33
0.0
  0
SOLID
  5
2DC
330
2D3
100
AcDbEntity
  8
0
 62
     0
100
AcDbTrace
 10
1798.781774
 20
301.405671
 30
0.0
 11
1798.781774
 21
218.072338
 31
0.0
 12
1548.781774
 22
259.739005
 32
0.0
 13
1548.781774
 23
259.739005
 33
0.0
  0
MTEXT
  5
2DD
330
2D3
100
AcDbEntity
  8
0
 62
     0
 48
100.0
100
AcDbMText
 10
2673.781774
 20
468.072338
 30
0.0
 40
250.0
 41
0.0
 71
     5
 72
     1
  1
299,11
 73
     1
 44
1.0
  0
POINT
  5
2DE
330
2D3
100
AcDbEntity
  8
Defpoints
 62
     0
100
AcDbPoint
 10
1249.667041
 20
3.527166
 30
0.0
  0
POINT
  5
2E4
330
2D3
100
AcDbEntity
  8
Defpoints
 62
     0
100
AcDbPoint
 10
1548.781774
 20
259.739005
 30
0.0
  0
POINT
  5
2E5
330
2D3
100
AcDbEntity
  8
Defpoints
 62
     0
100
AcDbPoint
 10
1548.781774
 20
259.739005
 30
0.0
  0
ENDBLK
  5
2D5
330
2D3
100
AcDbEntity
  8
0
100
AcDbBlockEnd
  0
BLOCK
  5
2F3
330
2F2
100
AcDbEntity
  8
0
100
AcDbBlockBegin
  2
*D11
 70
     1
 10
0.0
 20
0.0
 30
0.0
  3
*D11
  1
*D11
  0
LINE
  5
2F5
330
2F2
100
AcDbEntity
  8
0
 62
     0
 48
100.0
370
    -2
100
AcDbLine
 10
444.113604
 20
-253.731297
 30
0.0
 11
444.113604
 21
-191.231297
 31
0.0
  0
LINE
  5
2F6
330
2F2
100
AcDbEntity
  8
0
 62
     0
 48
100.0
370
    -2
100
AcDbLine
 10
1244.113604
 20
-253.731297
 30
0.0
 11
1244.113604
 21
-191.231297
 31
0.0
  0
LINE
  5
2F7
330
2F2
100
AcDbEntity
  8
0
 62
     5
 48
100.0
370
    -2
100
AcDbLine
 10
484.113605
 20
-316.231297
 30
0.0
 11
1204.113604
 21
-316.231297
 31
0.0
  0
SOLID
  5
2F8
330
2F2
100
AcDbEntity
  8
0
 62
     5
100
AcDbTrace
 10
484.113605
 20
-309.56463
 30
0.0
 11
484.113605
 21
-322.897964
 31
0.0
 12
444.113604
 22
-316.231297
 32
0.0
 13
444.113604
 23
-316.231297
 33
0.0
  0
SOLID
  5
2F9
330
2F2
100
AcDbEntity
  8
0
 62
     5
100
AcDbTrace
 10
1204.113604
 20
-322.897964
 30
0.0
 11
1204.113604
 21
-309.56463
 31
0.0
 12
1244.113604
 22
-316.231297
 32
0.0
 13
1244.113604
 23
-316.231297
 33
0.0
  0
MTEXT
  5
2FA
330
2F2
100
AcDbEntity
  8
0
 62
     5
 48
100.0
100
AcDbMText
 10
844.113604
 20
-233.151297
 30
0.0
 40
40.0
 41
0.0
 71
     5
 72
     1
  1
800
 73
     1
 44
1.0
  0
POINT
  5
2FB
330
2F2
100
AcDbEntity
  8
Defpoints
 62
     0
100
AcDbPoint
 10
444.113604
 20
-316.231297
 30
0.0
  0
POINT
  5
2FC
330
2F2
100
AcDbEntity
  8
Defpoints
 62
     0
100
AcDbPoint
 10
1244.113604
 20
-316.231297
 30
0.0
  0
POINT
  5
2FD
330
2F2
100
AcDbEntity
  8
Defpoints
 62
     0
100
AcDbPoint
 10
1244.113604
 20
-316.231297
 30
0.0
  0
ENDBLK
  5
2F4
330
2F2
100
AcDbEntity
  8
0
100
AcDbBlockEnd
  0
BLOCK
  5
306
330
305
100
AcDbEntity
  8
0
100
AcDbBlockBegin
  2
*D12
 70
     1
 10
0.0
 20
0.0
 30
0.0
  3
*D12
  1
*D12
  0
LINE
  5
308
330
305
100
AcDbEntity
  8
0
 62
     0
370
    -2
100
AcDbLine
 10
489.847757
 20
-5.010993
 30
0.0
 11
489.847757
 21
457.489007
 31
0.0
  0
LINE
  5
309
330
305
100
AcDbEntity
  8
0
 62
     0
370
    -2
100
AcDbLine
 10
1489.847757
 20
-5.010993
 30
0.0
 11
1489.847757
 21
457.489007
 31
0.0
  0
LINE
  5
30A
330
305
100
AcDbEntity
  8
0
 62
     5
370
    -2
100
AcDbLine
 10
739.847757
 20
332.489007
 30
0.0
 11
1239.847757
 21
332.489007
 31
0.0
  0
SOLID
  5
30B
330
305
100
AcDbEntity
  8
0
 62
     5
100
AcDbTrace
 10
739.847757
 20
374.155674
 30
0.0
 11
739.847757
 21
290.822341
 31
0.0
 12
489.847757
 22
332.489007
 32
0.0
 13
489.847757
 23
332.489007
 33
0.0
  0
SOLID
  5
30C
330
305
100
AcDbEntity
  8
0
 62
     5
100
AcDbTrace
 10
1239.847757
 20
290.822341
 30
0.0
 11
1239.847757
 21
374.155674
 31
0.0
 12
1489.847757
 22
332.489007
 32
0.0
 13
1489.847757
 23
332.489007
 33
0.0
  0
MTEXT
  5
30D
330
305
100
AcDbEntity
  8
0
 62
     5
 48
100.0
100
AcDbMText
 10
989.847757
 20
494.989007
 30
0.0
 40
200.0
 41
0.0
 71
     5
 72
     1
  1
1000
 73
     1
 44
1.0
  0
POINT
  5
30E
330
305
100
AcDbEntity
  8
Defpoints
 62
     0
100
AcDbPoint
 10
489.847757
 20
-67.510993
 30
0.0
  0
POINT
  5
30F
330
305
100
AcDbEntity
  8
Defpoints
 62
     0
100
AcDbPoint
 10
1489.847757
 20
-67.510993
 30
0.0
  0
POINT
  5
310
330
305
100
AcDbEntity
  8
Defpoints
 62
     0
100
AcDbPoint
 10
1489.847757
 20
332.489007
 30
0.0
  0
ENDBLK
  5
307
330
305
100
AcDbEntity
  8
0
100
AcDbBlockEnd
  0
BLOCK
  5
318
330
317
100
AcDbEntity
  8
0
100
AcDbBlockBegin
  2
*D13
 70
     1
 10
0.0
 20
0.0
 30
0.0
  3
*D13
  1
*D13
  0
LINE
  5
31A
330
317
100
AcDbEntity
  8
0
 62
     0
370
    -2
100
AcDbLine
 10
-0.332959
 20
62.610986
 30
0.0
 11
-0.332959
 21
125.110986
 31
0.0
  0
LINE
  5
31B
330
317
100
AcDbEntity
  8
0
 62
     0
370
    -2
100
AcDbLine
 10
1249.667041
 20
62.610986
 30
0.0
 11
1249.667041
 21
125.110986
 31
0.0
  0
LINE
  5
31C
330
317
100
AcDbEntity
  8
0
 62
     5
370
    -2
100
AcDbLine
 10
249.667041
 20
0.110986
 30
0.0
 11
999.667041
 21
0.110986
 31
0.0
  0
SOLID
  5
31D
330
317
100
AcDbEntity
  8
0
 62
     5
100
AcDbTrace
 10
249.667041
 20
41.777653
 30
0.0
 11
249.667041
 21
-41.55568
 31
0.0
 12
-0.332959
 22
0.110986
 32
0.0
 13
-0.332959
 23
0.110986
 33
0.0
  0
SOLID
  5
31E
330
317
100
AcDbEntity
  8
0
 62
     5
100
AcDbTrace
 10
999.667041
 20
-41.55568
 30
0.0
 11
999.667041
 21
41.777653
 31
0.0
 12
1249.667041
 22
0.110986
 32
0.0
 13
1249.667041
 23
0.110986
 33
0.0
  0
MTEXT
  5
31F
330
317
100
AcDbEntity
  8
0
 62
     5
 48
100.0
100
AcDbMText
 10
624.667041
 20
165.510986
 30
0.0
 40
200.0
 41
0.0
 71
     5
 72
     1
  1
1250
 73
     1
 44
1.0
  0
POINT
  5
320
330
317
100
AcDbEntity
  8
Defpoints
 62
     0
100
AcDbPoint
 10
-0.332959
 20
0.110986
 30
0.0
  0
POINT
  5
321
330
317
100
AcDbEntity
  8
Defpoints
 62
     0
100
AcDbPoint
 10
1249.667041
 20
0.110986
 30
0.0
  0
POINT
  5
322
330
317
100
AcDbEntity
  8
Defpoints
 62
     0
100
AcDbPoint
 10
1249.667041
 20
0.110986
 30
0.0
  0
ENDBLK
  5
319
330
317
100
AcDbEntity
  8
0
100
AcDbBlockEnd
  0
BLOCK
  5
327
330
326
100
AcDbEntity
  8
0
100
AcDbBlockBegin
  2
*D14
 70
     1
 10
0.0
 20
0.0
 30
0.0
  3
*D14
  1
*D14
  0
LINE
  5
329
330
326
100
AcDbEntity
  8
0
 62
     5
370
    -2
100
AcDbLine
 10
295.71432
 20
65.277102
 30
0.0
 11
-679.68568
 21
65.277102
 31
0.0
  0
LINE
  5
32A
330
326
100
AcDbEntity
  8
0
 62
     0
370
    -2
100
AcDbLine
 10
295.716164
 20
63.610986
 30
0.0
 11
295.716164
 21
190.277102
 31
0.0
  0
LINE
  5
32B
330
326
100
AcDbEntity
  8
0
 62
     0
370
    -2
100
AcDbLine
 10
359.216164
 20
0.110986
 30
0.0
 11
485.882279
 21
0.110986
 31
0.0
  0
ARC
  5
32C
330
326
100
AcDbEntity
  8
0
 62
     5
370
    -2
100
AcDbCircle
 10
295.716164
 20
0.110986
 30
0.0
 40
65.16611576505382
100
AcDbArc
 50
90.001621
 51
270.00081
  0
ARC
  5
32D
330
326
100
AcDbEntity
  8
0
 62
     5
370
    -2
100
AcDbCircle
 10
295.716164
 20
0.110986
 30
0.0
 40
65.16611576505382
100
AcDbArc
 50
179.99919
 51
359.998379
  0
ARC
  5
32E
330
326
100
AcDbEntity
  8
0
 62
     5
370
    -2
100
AcDbCircle
 10
295.716164
 20
0.110986
 30
0.0
 40
65.16611576505382
100
AcDbArc
 50
90.0
 51
0.0
  0
SOLID
  5
32F
330
326
100
AcDbEntity
  8
0
 62
     5
100
AcDbTrace
 10
337.384598
 20
-184.722603
 30
0.0
 11
254.051265
 21
-184.723193
 31
0.0
 12
295.716164
 22
65.277102
 32
0.0
 13
295.716164
 23
65.277102
 33
0.0
  0
SOLID
  5
330
330
326
100
AcDbEntity
  8
0
 62
     5
100
AcDbTrace
 10
110.881985
 20
-41.553913
 30
0.0
 11
110.882574
 21
41.779421
 31
0.0
 12
360.882279
 22
0.110986
 32
0.0
 13
360.882279
 23
0.110986
 33
0.0
  0
MTEXT
  5
331
330
326
100
AcDbEntity
  8
0
 62
     5
 48
100.0
100
AcDbMText
 10
-316.98568
 20
237.377102
 30
0.0
 40
200.0
 41
0.0
 71
     5
 72
     1
  1
270%%d
 73
     1
 44
1.0
  0
POINT
  5
332
330
326
100
AcDbEntity
  8
Defpoints
 62
     0
100
AcDbPoint
 10
295.716164
 20
0.110986
 30
0.0
  0
POINT
  5
333
330
326
100
AcDbEntity
  8
Defpoints
 62
     0
100
AcDbPoint
 10
295.716164
 20
1.110986
 30
0.0
  0
POINT
  5
334
330
326
100
AcDbEntity
  8
Defpoints
 62
     0
100
AcDbPoint
 10
296.716164
 20
0.110986
 30
0.0
  0
POINT
  5
335
330
326
100
AcDbEntity
  8
Defpoints
 62
     0
100
AcDbPoint
 10
295.716164
 20
-65.055129
 30
0.0
  0
ENDBLK
  5
328
330
326
100
AcDbEntity
  8
0
100
AcDbBlockEnd
  0
BLOCK
  5
33A
330
339
100
AcDbEntity
  8
0
100
AcDbBlockBegin
  2
*D15
 70
     1
 10
0.0
 20
0.0
 30
0.0
  3
*D15
  1
*D15
  0
LINE
  5
33C
330
339
100
AcDbEntity
  8
0
 62
     0
370
    -2
100
AcDbLine
 10
-0.332959
 20
62.610986
 30
0.0
 11
-0.332959
 21
125.110986
 31
0.0
  0
LINE
  5
33D
330
339
100
AcDbEntity
  8
0
 62
     0
370
    -2
100
AcDbLine
 10
1249.667041
 20
62.610986
 30
0.0
 11
1249.667041
 21
125.110986
 31
0.0
  0
LINE
  5
33E
330
339
100
AcDbEntity
  8
0
 62
     5
370
    -2
100
AcDbLine
 10
249.667041
 20
0.110986
 30
0.0
 11
999.667041
 21
0.110986
 31
0.0
  0
SOLID
  5
33F
330
339
100
AcDbEntity
  8
0
 62
     5
100
AcDbTrace
 10
249.667041
 20
41.777653
 30
0.0
 11
249.667041
 21
-41.55568
 31
0.0
 12
-0.332959
 22
0.110986
 32
0.0
 13
-0.332959
 23
0.110986
 33
0.0
  0
SOLID
  5
340
330
339
100
AcDbEntity
  8
0
 62
     5
100
AcDbTrace
 10
999.667041
 20
-41.55568
 30
0.0
 11
999.667041
 21
41.777653
 31
0.0
 12
1249.667041
 22
0.110986
 32
0.0
 13
1249.667041
 23
0.110986
 33
0.0
  0
MTEXT
  5
341
330
339
100
AcDbEntity
  8
0
 62
     5
 48
100.0
100
AcDbMText
 10
624.667041
 20
165.510986
 30
0.0
 40
200.0
 41
0.0
 71
     5
 72
     1
  1
1250
 73
     1
 44
1.0
  0
POINT
  5
342
330
339
100
AcDbEntity
  8
Defpoints
 62
     0
100
AcDbPoint
 10
-0.332959
 20
0.110986
 30
0.0
  0
POINT
  5
343
330
339
100
AcDbEntity
  8
Defpoints
 62
     0
100
AcDbPoint
 10
1249.667041
 20
0.110986
 30
0.0
  0
POINT
  5
344
330
339
100
AcDbEntity
  8
Defpoints
 62
     0
100
AcDbPoint
 10
1249.667041
 20
0.110986
 30
0.0
  0
ENDBLK
  5
33B
330
339
100
AcDbEntity
  8
0
100
AcDbBlockEnd
  0
BLOCK
  5
34B
330
34A
100
AcDbEntity
  8
0
100
AcDbBlockBegin
  2
*D16
 70
     1
 10
0.0
 20
0.0
 30
0.0
  3
*D16
  1
*D16
  0
LINE
  5
34D
330
34A
100
AcDbEntity
  8
0
 62
     0
370
    -2
100
AcDbLine
 10
59.474947
 20
0.110986
 30
0.0
 11
794.246221
 21
0.110986
 31
0.0
  0
LINE
  5
34E
330
34A
100
AcDbEntity
  8
0
 62
     0
370
    -2
100
AcDbLine
 10
-4.025053
 20
-63.389014
 30
0.0
 11
-4.025053
 21
-798.160288
 31
0.0
  0
ARC
  5
34F
330
34A
100
AcDbEntity
  8
0
 62
     5
370
    -2
100
AcDbCircle
 10
-4.025053
 20
0.110986
 30
0.0
 40
673.2712744952136
100
AcDbArc
 50
21.399307
 51
105.693085
  0
ARC
  5
350
330
34A
100
AcDbEntity
  8
0
 62
     5
370
    -2
100
AcDbCircle
 10
-4.025053
 20
0.110986
 30
0.0
 40
673.2712744952136
100
AcDbArc
 50
153.160733
 51
248.600693
  0
SOLID
  5
351
330
34A
100
AcDbEntity
  8
0
 62
     5
100
AcDbTrace
 10
581.888805
 20
238.028604
 30
0.0
 11
663.773299
 21
253.500327
 31
0.0
 12
669.246221
 22
0.110986
 32
0.0
 13
669.246221
 23
0.110986
 33
0.0
  0
SOLID
  5
352
330
34A
100
AcDbEntity
  8
0
 62
     5
100
AcDbTrace
 10
-257.414395
 20
-667.687366
 30
0.0
 11
-241.942672
 21
-585.802873
 31
0.0
 12
-4.025053
 22
-673.160288
 32
0.0
 13
-4.025053
 23
-673.160288
 33
0.0
  0
MTEXT
  5
353
330
34A
100
AcDbEntity
  8
0
 62
     5
 48
100.0
100
AcDbMText
 10
-480.099737
 20
476.18567
 30
0.0
 40
200.0
 41
0.0
 71
     5
 72
     1
  1
270%%d
 73
     1
 44
1.0
  0
POINT
  5
354
330
34A
100
AcDbEntity
  8
Defpoints
 62
     0
100
AcDbPoint
 10
-4.025053
 20
0.110986
 30
0.0
  0
POINT
  5
355
330
34A
100
AcDbEntity
  8
Defpoints
 62
     0
100
AcDbPoint
 10
-3.025053
 20
0.110986
 30
0.0
  0
POINT
  5
356
330
34A
100
AcDbEntity
  8
Defpoints
 62
     0
100
AcDbPoint
 10
-4.025053
 20
-0.889014
 30
0.0
  0
POINT
  5
357
330
34A
100
AcDbEntity
  8
Defpoints
 62
     0
100
AcDbPoint
 10
-4.025053
 20
673.382261
 30
0.0
  0
ENDBLK
  5
34C
330
34A
100
AcDbEntity
  8
0
100
AcDbBlockEnd
  0
BLOCK
  5
35E
330
35D
100
AcDbEntity
  8
0
100
AcDbBlockBegin
  2
*D17
 70
     1
 10
0.0
 20
0.0
 30
0.0
  3
*D17
  1
*D17
  0
LINE
  5
360
330
35D
100
AcDbEntity
  8
0
 62
     0
370
    -2
100
AcDbLine
 10
1187.167041
 20
800.110986
 30
0.0
 11
-125.332959
 21
800.110986
 31
0.0
  0
LINE
  5
361
330
35D
100
AcDbEntity
  8
0
 62
     0
370
    -2
100
AcDbLine
 10
-62.832959
 20
0.110986
 30
0.0
 11
-125.332959
 21
0.110986
 31
0.0
  0
LINE
  5
362
330
35D
100
AcDbEntity
  8
0
 62
     5
370
    -2
100
AcDbLine
 10
-0.332959
 20
-249.889014
 30
0.0
 11
-554.832959
 21
-249.889014
 31
0.0
  0
LINE
  5
363
330
35D
100
AcDbEntity
  8
0
 62
     5
370
    -2
100
AcDbLine
 10
-0.332959
 20
550.110986
 30
0.0
 11
-0.332959
 21
250.110986
 31
0.0
  0
LINE
  5
364
330
35D
100
AcDbEntity
  8
0
 62
     5
370
    -2
100
AcDbLine
 10
-0.332959
 20
0.110986
 30
0.0
 11
-0.332959
 21
-249.889014
 31
0.0
  0
SOLID
  5
365
330
35D
100
AcDbEntity
  8
0
 62
     5
100
AcDbTrace
 10
41.333708
 20
550.110986
 30
0.0
 11
-41.999626
 21
550.110986
 31
0.0
 12
-0.332959
 22
800.110986
 32
0.0
 13
-0.332959
 23
800.110986
 33
0.0
  0
SOLID
  5
366
330
35D
100
AcDbEntity
  8
0
 62
     5
100
AcDbTrace
 10
-41.999626
 20
250.110986
 30
0.0
 11
41.333708
 21
250.110986
 31
0.0
 12
-0.332959
 22
0.110986
 32
0.0
 13
-0.332959
 23
0.110986
 33
0.0
  0
MTEXT
  5
367
330
35D
100
AcDbEntity
  8
0
 62
     5
 48
100.0
100
AcDbMText
 10
-308.832959
 20
-84.489014
 30
0.0
 40
200.0
 41
0.0
 71
     5
 72
     1
  1
800
 73
     1
 44
1.0
  0
POINT
  5
368
330
35D
100
AcDbEntity
  8
Defpoints
 62
     0
100
AcDbPoint
 10
1249.667041
 20
800.110986
 30
0.0
  0
POINT
  5
369
330
35D
100
AcDbEntity
  8
Defpoints
 62
     0
100
AcDbPoint
 10
-0.332959
 20
0.110986
 30
0.0
  0
POINT
  5
36A
330
35D
100
AcDbEntity
  8
Defpoints
 62
     0
100
AcDbPoint
 10
-0.332959
 20
0.110986
 30
0.0
  0
ENDBLK
  5
35F
330
35D
100
AcDbEntity
  8
0
100
AcDbBlockEnd
  0
BLOCK
  5
36F
330
36E
100
AcDbEntity
  8
0
100
AcDbBlockBegin
  2
*D18
 70
     1
 10
0.0
 20
0.0
 30
0.0
  3
*D18
  1
*D18
  0
LINE
  5
371
330
36E
100
AcDbEntity
  8
0
 62
     0
370
    -2
100
AcDbLine
 10
59.474947
 20
0.110986
 30
0.0
 11
837.639078
 21
0.110986
 31
0.0
  0
LINE
  5
372
330
36E
100
AcDbEntity
  8
0
 62
     0
370
    -2
100
AcDbLine
 10
-4.025053
 20
-63.389014
 30
0.0
 11
-4.025053
 21
-841.553145
 31
0.0
  0
ARC
  5
373
330
36E
100
AcDbEntity
  8
0
 62
     5
370
    -2
100
AcDbCircle
 10
-4.025053
 20
0.110986
 30
0.0
 40
716.6641316380707
100
AcDbArc
 50
20.089724
 51
108.693407
  0
ARC
  5
374
330
36E
100
AcDbEntity
  8
0
 62
     5
370
    -2
100
AcDbCircle
 10
-4.025053
 20
0.110986
 30
0.0
 40
716.6641316380707
100
AcDbArc
 50
152.162442
 51
249.910276
  0
SOLID
  5
375
330
36E
100
AcDbEntity
  8
0
 62
     5
100
AcDbTrace
 10
628.006294
 20
239.01139
 30
0.0
 11
710.062251
 21
253.546325
 31
0.0
 12
712.639078
 22
0.110986
 32
0.0
 13
712.639078
 23
0.110986
 33
0.0
  0
SOLID
  5
376
330
36E
100
AcDbEntity
  8
0
 62
     5
100
AcDbTrace
 10
-257.460392
 20
-713.976319
 30
0.0
 11
-242.925457
 21
-631.920361
 31
0.0
 12
-4.025053
 22
-716.553145
 32
0.0
 13
-4.025053
 23
-716.553145
 33
0.0
  0
MTEXT
  5
377
330
36E
100
AcDbEntity
  8
0
 62
     5
 48
100.0
100
AcDbMText
 10
-510.783121
 20
506.869054
 30
0.0
 40
200.0
 41
0.0
 71
     5
 72
     1
  1
270%%d
 73
     1
 44
1.0
  0
POINT
  5
378
330
36E
100
AcDbEntity
  8
Defpoints
 62
     0
100
AcDbPoint
 10
-4.025053
 20
0.110986
 30
0.0
  0
POINT
  5
379
330
36E
100
AcDbEntity
  8
Defpoints
 62
     0
100
AcDbPoint
 10
-3.025053
 20
0.110986
 30
0.0
  0
POINT
  5
37A
330
36E
100
AcDbEntity
  8
Defpoints
 62
     0
100
AcDbPoint
 10
-4.025053
 20
-0.889014
 30
0.0
  0
POINT
  5
37B
330
36E
100
AcDbEntity
  8
Defpoints
 62
     0
100
AcDbPoint
 10
-4.025053
 20
716.775118
 30
0.0
  0
ENDBLK
  5
370
330
36E
100
AcDbEntity
  8
0
100
AcDbBlockEnd
  0
BLOCK
  5
382
330
381
100
AcDbEntity
  8
0
100
AcDbBlockBegin
  2
*D19
 70
     1
 10
0.0
 20
0.0
 30
0.0
  3
*D19
  1
*D19
  0
LINE
  5
384
330
381
100
AcDbEntity
  8
0
 62
     0
370
    -2
100
AcDbLine
 10
-0.332959
 20
62.610986
 30
0.0
 11
-0.332959
 21
925.110986
 31
0.0
  0
LINE
  5
385
330
381
100
AcDbEntity
  8
0
 62
     0
370
    -2
100
AcDbLine
 10
1249.667041
 20
62.610986
 30
0.0
 11
1249.667041
 21
925.110986
 31
0.0
  0
LINE
  5
386
330
381
100
AcDbEntity
  8
0
 62
     5
370
    -2
100
AcDbLine
 10
249.667041
 20
800.110986
 30
0.0
 11
999.667041
 21
800.110986
 31
0.0
  0
SOLID
  5
387
330
381
100
AcDbEntity
  8
0
 62
     5
100
AcDbTrace
 10
249.667041
 20
841.777653
 30
0.0
 11
249.667041
 21
758.44432
 31
0.0
 12
-0.332959
 22
800.110986
 32
0.0
 13
-0.332959
 23
800.110986
 33
0.0
  0
SOLID
  5
388
330
381
100
AcDbEntity
  8
0
 62
     5
100
AcDbTrace
 10
999.667041
 20
758.44432
 30
0.0
 11
999.667041
 21
841.777653
 31
0.0
 12
1249.667041
 22
800.110986
 32
0.0
 13
1249.667041
 23
800.110986
 33
0.0
  0
MTEXT
  5
389
330
381
100
AcDbEntity
  8
0
 62
     5
 48
100.0
100
AcDbMText
 10
624.667041
 20
965.510986
 30
0.0
 40
200.0
 41
0.0
 71
     5
 72
     1
  1
1250
 73
     1
 44
1.0
  0
POINT
  5
38A
330
381
100
AcDbEntity
  8
Defpoints
 62
     0
100
AcDbPoint
 10
-0.332959
 20
0.110986
 30
0.0
  0
POINT
  5
38B
330
381
100
AcDbEntity
  8
Defpoints
 62
     0
100
AcDbPoint
 10
1249.667041
 20
0.110986
 30
0.0
  0
POINT
  5
38C
330
381
100
AcDbEntity
  8
Defpoints
 62
     0
100
AcDbPoint
 10
1249.667041
 20
800.110986
 30
0.0
  0
ENDBLK
  5
383
330
381
100
AcDbEntity
  8
0
100
AcDbBlockEnd
  0
BLOCK
  5
393
330
392
100
AcDbEntity
  8
0
100
AcDbBlockBegin
  2
*D20
 70
     1
 10
0.0
 20
0.0
 30
0.0
  3
*D20
  1
*D20
  0
LINE
  5
395
330
392
100
AcDbEntity
  8
0
 62
     0
370
    -2
100
AcDbLine
 10
59.474947
 20
0.110986
 30
0.0
 11
868.978364
 21
0.110986
 31
0.0
  0
LINE
  5
396
330
392
100
AcDbEntity
  8
0
 62
     0
370
    -2
100
AcDbLine
 10
-4.025053
 20
-63.389014
 30
0.0
 11
-4.025053
 21
-872.892431
 31
0.0
  0
ARC
  5
397
330
392
100
AcDbEntity
  8
0
 62
     5
370
    -2
100
AcDbCircle
 10
-4.025053
 20
0.110986
 30
0.0
 40
748.0034173523563
100
AcDbArc
 50
19.23984
 51
110.415781
  0
ARC
  5
398
330
392
100
AcDbEntity
  8
0
 62
     5
370
    -2
100
AcDbCircle
 10
-4.025053
 20
0.110986
 30
0.0
 40
748.0034173523563
100
AcDbArc
 50
151.50855
 51
250.76016
  0
SOLID
  5
399
330
392
100
AcDbEntity
  8
0
 62
     5
100
AcDbTrace
 10
661.11973
 20
239.632505
 30
0.0
 11
743.28123
 21
253.558466
 31
0.0
 12
743.978364
 22
0.110986
 32
0.0
 13
743.978364
 23
0.110986
 33
0.0
  0
SOLID
  5
39A
330
392
100
AcDbEntity
  8
0
 62
     5
100
AcDbTrace
 10
-257.472533
 20
-747.195297
 30
0.0
 11
-243.546572
 21
-665.033797
 31
0.0
 12
-4.025053
 22
-747.892431
 32
0.0
 13
-4.025053
 23
-747.892431
 33
0.0
  0
MTEXT
  5
39B
330
392
100
AcDbEntity
  8
0
 62
     5
 48
100.0
100
AcDbMText
 10
-532.943342
 20
529.029275
 30
0.0
 40
200.0
 41
0.0
 71
     5
 72
     1
  1
270%%d
 73
     1
 44
1.0
  0
POINT
  5
39C
330
392
100
AcDbEntity
  8
Defpoints
 62
     0
100
AcDbPoint
 10
-4.025053
 20
0.110986
 30
0.0
  0
POINT
  5
39D
330
392
100
AcDbEntity
  8
Defpoints
 62
     0
100
AcDbPoint
 10
-3.025053
 20
0.110986
 30
0.0
  0
POINT
  5
39E
330
392
100
AcDbEntity
  8
Defpoints
 62
     0
100
AcDbPoint
 10
-4.025053
 20
-0.889014
 30
0.0
  0
POINT
  5
39F
330
392
100
AcDbEntity
  8
Defpoints
 62
     0
100
AcDbPoint
 10
-4.025053
 20
748.114404
 30
0.0
  0
ENDBLK
  5
394
330
392
100
AcDbEntity
  8
0
100
AcDbBlockEnd
  0
BLOCK
  5
3A6
330
3A5
100
AcDbEntity
  8
0
100
AcDbBlockBegin
  2
*D21
 70
     1
 10
0.0
 20
0.0
 30
0.0
  3
*D21
  1
*D21
  0
LINE
  5
3A8
330
3A5
100
AcDbEntity
  8
0
 62
     0
370
    -2
100
AcDbLine
 10
-0.332959
 20
62.610986
 30
0.0
 11
-0.332959
 21
1325.110986
 31
0.0
  0
LINE
  5
3A9
330
3A5
100
AcDbEntity
  8
0
 62
     0
370
    -2
100
AcDbLine
 10
1249.667041
 20
62.610986
 30
0.0
 11
1249.667041
 21
1325.110986
 31
0.0
  0
LINE
  5
3AA
330
3A5
100
AcDbEntity
  8
0
 62
     5
370
    -2
100
AcDbLine
 10
249.667041
 20
1200.110986
 30
0.0
 11
1249.667041
 21
1200.110986
 31
0.0
  0
SOLID
  5
3AB
330
3A5
100
AcDbEntity
  8
0
 62
     5
100
AcDbTrace
 10
249.667041
 20
1241.777653
 30
0.0
 11
249.667041
 21
1158.44432
 31
0.0
 12
-0.332959
 22
1200.110986
 32
0.0
 13
-0.332959
 23
1200.110986
 33
0.0
  0
INSERT
  5
3AC
330
3A5
100
AcDbEntity
  8
0
 62
     5
370
    -2
100
AcDbBlockReference
  2
_DotSmall
 10
1249.667041
 20
1200.110986
 30
0.0
 41
250.0
 42
250.0
 43
250.0
  0
MTEXT
  5
3AD
330
3A5
100
AcDbEntity
  8
0
 62
     5
 48
100.0
100
AcDbMText
 10
749.667041
 20
1365.510986
 30
0.0
 40
200.0
 41
0.0
 71
     5
 72
     1
  1
1250
 73
     1
 44
1.0
  0
POINT
  5
3AE
330
3A5
100
AcDbEntity
  8
Defpoints
 62
     0
100
AcDbPoint
 10
-0.332959
 20
0.110986
 30
0.0
  0
POINT
  5
3AF
330
3A5
100
AcDbEntity
  8
Defpoints
 62
     0
100
AcDbPoint
 10
1249.667041
 20
0.110986
 30
0.0
  0
POINT
  5
3B0
330
3A5
100
AcDbEntity
  8
Defpoints
 62
     0
100
AcDbPoint
 10
1249.667041
 20
1200.110986
 30
0.0
  0
ENDBLK
  5
3A7
330
3A5
100
AcDbEntity
  8
0
100
AcDbBlockEnd
  0
BLOCK
  5
3B7
330
3B6
100
AcDbEntity
  8
0
100
AcDbBlockBegin
  2
*D22
 70
     1
 10
0.0
 20
0.0
 30
0.0
  3
*D22
  1
*D22
  0
LINE
  5
3B9
330
3B6
100
AcDbEntity
  8
0
 62
     5
370
    -2
100
AcDbLine
 10
1958.113842
 20
1600.110986
 30
0.0
 11
1153.313842
 21
1600.110986
 31
0.0
  0
LINE
  5
3BA
330
3B6
100
AcDbEntity
  8
0
 62
     5
370
    -2
100
AcDbLine
 10
1153.313842
 20
1600.110986
 30
0.0
 11
1215.813842
 21
1200.110986
 31
0.0
  0
LINE
  5
3BB
330
3B6
100
AcDbEntity
  8
0
 62
     0
370
    -2
100
AcDbLine
 10
1249.667041
 20
62.610986
 30
0.0
 11
1249.667041
 21
1325.110986
 31
0.0
  0
LINE
  5
3BC
330
3B6
100
AcDbEntity
  8
0
 62
     0
370
    -2
100
AcDbLine
 10
1181.960642
 20
862.610986
 30
0.0
 11
1181.960642
 21
1325.110986
 31
0.0
  0
LINE
  5
3BD
330
3B6
100
AcDbEntity
  8
0
 62
     5
370
    -2
100
AcDbLine
 10
1249.667041
 20
1200.110986
 30
0.0
 11
1181.960642
 21
1200.110986
 31
0.0
  0
LINE
  5
3BE
330
3B6
100
AcDbEntity
  8
0
 62
     5
370
    -2
100
AcDbLine
 10
931.960642
 20
1200.110986
 30
0.0
 11
681.960642
 21
1200.110986
 31
0.0
  0
INSERT
  5
3BF
330
3B6
100
AcDbEntity
  8
0
 62
     5
370
    -2
100
AcDbBlockReference
  2
_DotSmall
 10
1249.667041
 20
1200.110986
 30
0.0
 41
250.0
 42
250.0
 43
250.0
 50
180.0
  0
SOLID
  5
3C0
330
3B6
100
AcDbEntity
  8
0
 62
     5
100
AcDbTrace
 10
931.960642
 20
1158.44432
 30
0.0
 11
931.960642
 21
1241.777653
 31
0.0
 12
1181.960642
 22
1200.110986
 32
0.0
 13
1181.960642
 23
1200.110986
 33
0.0
  0
MTEXT
  5
3C1
330
3B6
100
AcDbEntity
  8
0
 62
     5
 48
100.0
100
AcDbMText
 10
1555.713842
 20
1787.910986
 30
0.0
 40
200.0
 41
0.0
 71
     5
 72
     1
  1
67,71
 73
     1
 44
1.0
  0
POINT
  5
3C4
330
3B6
100
AcDbEntity
  8
Defpoints
 62
     0
100
AcDbPoint
 10
1249.667041
 20
0.110986
 30
0.0
  0
POINT
  5
3CA
330
3B6
100
AcDbEntity
  8
Defpoints
 62
     0
100
AcDbPoint
 10
1181.960642
 20
800.110986
 30
0.0
  0
POINT
  5
3CB
330
3B6
100
AcDbEntity
  8
Defpoints
 62
     0
100
AcDbPoint
 10
1181.960642
 20
1200.110986
 30
0.0
  0
ENDBLK
  5
3B8
330
3B6
100
AcDbEntity
  8
0
100
AcDbBlockEnd
  0
BLOCK
  5
3C7
330
3C6
100
AcDbEntity
  8
0
100
AcDbBlockBegin
  2
_DotSmall
 70
     0
 10
0.0
 20
0.0
 30
0.0
  3
_DotSmall
  1
_DotSmall
  0
LWPOLYLINE
  5
3C9
330
3C6
100
AcDbEntity
  8
0
  6
ByBlock
 62
     0
100
AcDbPolyline
 90
        2
 70
     1
 43
0.5
 10
-0.0625
 20
0.0
 42
1.0
 10
0.0625
 20
0.0
 42
1.0
  0
ENDBLK
  5
3C8
330
3C6
100
AcDbEntity
  8
0
100
AcDbBlockEnd
  0
BLOCK
  5
3CE
330
3CD
100
AcDbEntity
  8
0
100
AcDbBlockBegin
  2
*D24
 70
     1
 10
0.0
 20
0.0
 30
0.0
  3
*D24
  1
*D24
  0
LINE
  5
3D0
330
3CD
100
AcDbEntity
  8
0
 62
     5
370
    -2
100
AcDbLine
 10
1958.113842
 20
2000.110986
 30
0.0
 11
1153.313842
 21
2000.110986
 31
0.0
  0
LINE
  5
3D1
330
3CD
100
AcDbEntity
  8
0
 62
     5
370
    -2
100
AcDbLine
 10
1153.313842
 20
2000.110986
 30
0.0
 11
1215.813842
 21
1200.110986
 31
0.0
  0
LINE
  5
3D2
330
3CD
100
AcDbEntity
  8
0
 62
     0
370
    -2
100
AcDbLine
 10
1181.960642
 20
862.610986
 30
0.0
 11
1181.960642
 21
1325.110986
 31
0.0
  0
LINE
  5
3D3
330
3CD
100
AcDbEntity
  8
0
 62
     0
370
    -2
100
AcDbLine
 10
1249.667041
 20
68.114404
 30
0.0
 11
1249.667041
 21
1325.110986
 31
0.0
  0
LINE
  5
3D4
330
3CD
100
AcDbEntity
  8
0
 62
     5
370
    -2
100
AcDbLine
 10
1181.960642
 20
1200.110986
 30
0.0
 11
1249.667041
 21
1200.110986
 31
0.0
  0
INSERT
  5
3D5
330
3CD
100
AcDbEntity
  8
0
 62
     5
370
    -2
100
AcDbBlockReference
  2
_DotSmall
 10
1181.960642
 20
1200.110986
 30
0.0
 41
250.0
 42
250.0
 43
250.0
  0
INSERT
  5
3D6
330
3CD
100
AcDbEntity
  8
0
 62
     5
370
    -2
100
AcDbBlockReference
  2
_DotSmall
 10
1249.667041
 20
1200.110986
 30
0.0
 41
250.0
 42
250.0
 43
250.0
 50
180.0
  0
MTEXT
  5
3D7
330
3CD
100
AcDbEntity
  8
0
 62
     5
 48
100.0
100
AcDbMText
 10
1555.713842
 20
2187.910986
 30
0.0
 40
200.0
 41
0.0
 71
     5
 72
     1
  1
67,71
 73
     1
 44
1.0
  0
POINT
  5
3D8
330
3CD
100
AcDbEntity
  8
Defpoints
 62
     0
100
AcDbPoint
 10
1181.960642
 20
800.110986
 30
0.0
  0
POINT
  5
3DD
330
3CD
100
AcDbEntity
  8
Defpoints
 62
     0
100
AcDbPoint
 10
1249.667041
 20
5.614404
 30
0.0
  0
POINT
  5
3DF
330
3CD
100
AcDbEntity
  8
Defpoints
 62
     0
100
AcDbPoint
 10
1249.667041
 20
1200.110986
 30
0.0
  0
ENDBLK
  5
3CF
330
3CD
100
AcDbEntity
  8
0
100
AcDbBlockEnd
  0
BLOCK
  5
3E2
330
3E1
100
AcDbEntity
  8
0
100
AcDbBlockBegin
  2
*D25
 70
     1
 10
0.0
 20
0.0
 30
0.0
  3
*D25
  1
*D25
  0
LINE
  5
3E4
330
3E1
100
AcDbEntity
  8
0
 62
     0
370
    -2
100
AcDbLine
 10
1249.667041
 20
68.114404
 30
0.0
 11
1249.667041
 21
1325.110986
 31
0.0
  0
LINE
  5
3E5
330
3E1
100
AcDbEntity
  8
0
 62
     0
370
    -2
100
AcDbLine
 10
1885.889214
 20
159.721546
 30
0.0
 11
1885.889214
 21
1325.110986
 31
0.0
  0
LINE
  5
3E6
330
3E1
100
AcDbEntity
  8
0
 62
     5
370
    -2
100
AcDbLine
 10
1885.889214
 20
1200.110986
 30
0.0
 11
3173.489214
 21
1200.110986
 31
0.0
  0
LINE
  5
3E7
330
3E1
100
AcDbEntity
  8
0
 62
     5
370
    -2
100
AcDbLine
 10
1249.667041
 20
1200.110986
 30
0.0
 11
1635.889214
 21
1200.110986
 31
0.0
  0
INSERT
  5
3E8
330
3E1
100
AcDbEntity
  8
0
 62
     5
370
    -2
100
AcDbBlockReference
  2
_DotSmall
 10
1249.667041
 20
1200.110986
 30
0.0
 41
250.0
 42
250.0
 43
250.0
 50
180.0
  0
SOLID
  5
3E9
330
3E1
100
AcDbEntity
  8
0
 62
     5
100
AcDbTrace
 10
1635.889214
 20
1158.44432
 30
0.0
 11
1635.889214
 21
1241.777653
 31
0.0
 12
1885.889214
 22
1200.110986
 32
0.0
 13
1885.889214
 23
1200.110986
 33
0.0
  0
MTEXT
  5
3EA
330
3E1
100
AcDbEntity
  8
0
 62
     5
 48
100.0
100
AcDbMText
 10
2654.689214
 20
1387.910986
 30
0.0
 40
200.0
 41
0.0
 71
     5
 72
     1
  1
636,22
 73
     1
 44
1.0
  0
POINT
  5
3EB
330
3E1
100
AcDbEntity
  8
Defpoints
 62
     0
100
AcDbPoint
 10
1249.667041
 20
5.614404
 30
0.0
  0
POINT
  5
3EC
330
3E1
100
AcDbEntity
  8
Defpoints
 62
     0
100
AcDbPoint
 10
1885.889214
 20
97.221546
 30
0.0
  0
POINT
  5
3F1
330
3E1
100
AcDbEntity
  8
Defpoints
 62
     0
100
AcDbPoint
 10
1885.889214
 20
1200.110986
 30
0.0
  0
ENDBLK
  5
3E3
330
3E1
100
AcDbEntity
  8
0
100
AcDbBlockEnd
  0
BLOCK
  5
3F5
330
3F4
100
AcDbEntity
  8
0
100
AcDbBlockBegin
  2
*D26
 70
     1
 10
0.0
 20
0.0
 30
0.0
  3
*D26
  1
*D26
  0
LINE
  5
3F7
330
3F4
100
AcDbEntity
  8
0
 62
     0
370
    -2
100
AcDbLine
 10
1885.889214
 20
159.721546
 30
0.0
 11
1885.889214
 21
1325.110986
 31
0.0
  0
LINE
  5
3F8
330
3F4
100
AcDbEntity
  8
0
 62
     0
370
    -2
100
AcDbLine
 10
1813.567785
 20
289.900118
 30
0.0
 11
1813.567785
 21
1325.110986
 31
0.0
  0
LINE
  5
3F9
330
3F4
100
AcDbEntity
  8
0
 62
     5
370
    -2
100
AcDbLine
 10
1563.567785
 20
1200.110986
 30
0.0
 11
450.967785
 21
1200.110986
 31
0.0
  0
LINE
  5
3FA
330
3F4
100
AcDbEntity
  8
0
 62
     5
370
    -2
100
AcDbLine
 10
1885.889214
 20
1200.110986
 30
0.0
 11
1813.567785
 21
1200.110986
 31
0.0
  0
LINE
  5
3FB
330
3F4
100
AcDbEntity
  8
0
 62
     5
370
    -2
100
AcDbLine
 10
2135.889214
 20
1200.110986
 30
0.0
 11
2385.889214
 21
1200.110986
 31
0.0
  0
SOLID
  5
3FC
330
3F4
100
AcDbEntity
  8
0
 62
     5
100
AcDbTrace
 10
2135.889214
 20
1241.777653
 30
0.0
 11
2135.889214
 21
1158.44432
 31
0.0
 12
1885.889214
 22
1200.110986
 32
0.0
 13
1885.889214
 23
1200.110986
 33
0.0
  0
SOLID
  5
3FD
330
3F4
100
AcDbEntity
  8
0
 62
     5
100
AcDbTrace
 10
1563.567785
 20
1158.44432
 30
0.0
 11
1563.567785
 21
1241.777653
 31
0.0
 12
1813.567785
 22
1200.110986
 32
0.0
 13
1813.567785
 23
1200.110986
 33
0.0
  0
MTEXT
  5
3FE
330
3F4
100
AcDbEntity
  8
0
 62
     5
 48
100.0
100
AcDbMText
 10
882.267785
 20
1387.910986
 30
0.0
 40
200.0
 41
0.0
 71
     5
 72
     1
  1
72,32
 73
     1
 44
1.0
  0
POINT
  5
3FF
330
3F4
100
AcDbEntity
  8
Defpoints
 62
     0
100
AcDbPoint
 10
1885.889214
 20
97.221546
 30
0.0
  0
POINT
  5
404
330
3F4
100
AcDbEntity
  8
Defpoints
 62
     0
100
AcDbPoint
 10
1813.567785
 20
227.400118
 30
0.0
  0
POINT
  5
405
330
3F4
100
AcDbEntity
  8
Defpoints
 62
     0
100
AcDbPoint
 10
1813.567785
 20
1200.110986
 30
0.0
  0
ENDBLK
  5
3F6
330
3F4
100
AcDbEntity
  8
0
100
AcDbBlockEnd
  0
BLOCK
  5
448
330
447
100
AcDbEntity
  8
0
100
AcDbBlockBegin
  2
*D27
 70
     1
 10
0.0
 20
0.0
 30
0.0
  3
*D27
  1
*D27
  0
LINE
  5
44A
330
447
100
AcDbEntity
  8
0
 62
     0
370
    -2
100
AcDbLine
 10
-4.283836
 20
859.443413
 30
0.0
 11
-4.283836
 21
921.943413
 31
0.0
  0
LINE
  5
44B
330
447
100
AcDbEntity
  8
0
 62
     0
370
    -2
100
AcDbLine
 10
295.716164
 20
609.443413
 30
0.0
 11
295.716164
 21
921.943413
 31
0.0
  0
LINE
  5
44C
330
447
100
AcDbEntity
  8
0
 62
     5
370
    -2
100
AcDbLine
 10
35.716164
 20
796.943413
 30
0.0
 11
255.716163
 21
796.943413
 31
0.0
  0
SOLID
  5
44D
330
447
100
AcDbEntity
  8
0
 62
     5
100
AcDbTrace
 10
35.716164
 20
803.610079
 30
0.0
 11
35.716164
 21
790.276746
 31
0.0
 12
-4.283836
 22
796.943413
 32
0.0
 13
-4.283836
 23
796.943413
 33
0.0
  0
SOLID
  5
44E
330
447
100
AcDbEntity
  8
0
 62
     5
100
AcDbTrace
 10
255.716163
 20
790.276746
 30
0.0
 11
255.716163
 21
803.610079
 31
0.0
 12
295.716164
 22
796.943413
 32
0.0
 13
295.716164
 23
796.943413
 33
0.0
  0
MTEXT
  5
44F
330
447
100
AcDbEntity
  8
0
 62
     5
 48
100.0
100
AcDbMText
 10
145.716164
 20
869.733413
 30
0.0
 40
20.0
 41
0.0
 71
     5
 72
     1
  1
300
 73
     1
 44
1.0
  0
POINT
  5
450
330
447
100
AcDbEntity
  8
Defpoints
 62
     0
100
AcDbPoint
 10
-4.283836
 20
796.943413
 30
0.0
  0
POINT
  5
451
330
447
100
AcDbEntity
  8
Defpoints
 62
     0
100
AcDbPoint
 10
295.716164
 20
546.943413
 30
0.0
  0
POINT
  5
452
330
447
100
AcDbEntity
  8
Defpoints
 62
     0
100
AcDbPoint
 10
295.716164
 20
796.943413
 30
0.0
  0
ENDBLK
  5
449
330
447
100
AcDbEntity
  8
0
100
AcDbBlockEnd
  0
BLOCK
  5
45B
330
45A
100
AcDbEntity
  8
0
100
AcDbBlockBegin
  2
*D28
 70
     1
 10
0.0
 20
0.0
 30
0.0
  3
*D28
  1
*D28
  0
LINE
  5
45D
330
45A
100
AcDbEntity
  8
0
 62
     0
370
    -2
100
AcDbLine
 10
-878.240272
 20
510.630362
 30
0.0
 11
-878.240272
 21
973.130362
 31
0.0
  0
LINE
  5
45E
330
45A
100
AcDbEntity
  8
0
 62
     0
370
    -2
100
AcDbLine
 10
121.759728
 20
510.630362
 30
0.0
 11
121.759728
 21
973.130362
 31
0.0
  0
LINE
  5
45F
330
45A
100
AcDbEntity
  8
0
 62
     5
370
    -2
100
AcDbLine
 10
-628.240272
 20
848.130362
 30
0.0
 11
-128.240272
 21
848.130362
 31
0.0
  0
SOLID
  5
460
330
45A
100
AcDbEntity
  8
0
 62
     5
100
AcDbTrace
 10
-628.240272
 20
889.797029
 30
0.0
 11
-628.240272
 21
806.463696
 31
0.0
 12
-878.240272
 22
848.130362
 32
0.0
 13
-878.240272
 23
848.130362
 33
0.0
  0
SOLID
  5
461
330
45A
100
AcDbEntity
  8
0
 62
     5
100
AcDbTrace
 10
-128.240272
 20
806.463696
 30
0.0
 11
-128.240272
 21
889.797029
 31
0.0
 12
121.759728
 22
848.130362
 32
0.0
 13
121.759728
 23
848.130362
 33
0.0
  0
MTEXT
  5
462
330
45A
100
AcDbEntity
  8
0
 62
     5
 48
100.0
100
AcDbMText
 10
-378.240272
 20
1010.630362
 30
0.0
 40
200.0
 41
0.0
 71
     5
 72
     1
  1
1000
 73
     1
 44
1.0
  0
POINT
  5
463
330
45A
100
AcDbEntity
  8
Defpoints
 62
     0
100
AcDbPoint
 10
-878.240272
 20
448.130362
 30
0.0
  0
POINT
  5
464
330
45A
100
AcDbEntity
  8
Defpoints
 62
     0
100
AcDbPoint
 10
121.759728
 20
448.130362
 30
0.0
  0
POINT
  5
465
330
45A
100
AcDbEntity
  8
Defpoints
 62
     0
100
AcDbPoint
 10
121.759728
 20
848.130362
 30
0.0
  0
ENDBLK
  5
45C
330
45A
100
AcDbEntity
  8
0
100
AcDbBlockEnd
  0
BLOCK
  5
478
330
477
100
AcDbEntity
  8
0
100
AcDbBlockBegin
  2
*D29
 70
     1
 10
0.0
 20
0.0
 30
0.0
  3
*D29
  1
*D29
  0
LINE
  5
47A
330
477
100
AcDbEntity
  8
0
 62
     0
370
    -2
100
AcDbLine
 10
-48.262376
 20
-214.8408
 30
0.0
 11
-48.262376
 21
-152.3408
 31
0.0
  0
LINE
  5
47B
330
477
100
AcDbEntity
  8
0
 62
     0
370
    -2
100
AcDbLine
 10
175.333426
 20
-330.119243
 30
0.0
 11
175.333426
 21
-402.3408
 31
0.0
  0
LINE
  5
47C
330
477
100
AcDbEntity
  8
0
 62
     5
370
    -2
100
AcDbLine
 10
425.333426
 20
-277.3408
 30
0.0
 11
1554.333426
 21
-277.3408
 31
0.0
  0
LINE
  5
47D
330
477
100
AcDbEntity
  8
0
 62
     5
370
    -2
100
AcDbLine
 10
-48.262376
 20
-277.3408
 30
0.0
 11
175.333426
 21
-277.3408
 31
0.0
  0
LINE
  5
47E
330
477
100
AcDbEntity
  8
0
 62
     5
370
    -2
100
AcDbLine
 10
-298.262376
 20
-277.3408
 30
0.0
 11
-548.262376
 21
-277.3408
 31
0.0
  0
SOLID
  5
47F
330
477
100
AcDbEntity
  8
0
 62
     5
100
AcDbTrace
 10
-298.262376
 20
-319.007467
 30
0.0
 11
-298.262376
 21
-235.674133
 31
0.0
 12
-48.262376
 22
-277.3408
 32
0.0
 13
-48.262376
 23
-277.3408
 33
0.0
  0
SOLID
  5
480
330
477
100
AcDbEntity
  8
0
 62
     5
100
AcDbTrace
 10
425.333426
 20
-235.674133
 30
0.0
 11
425.333426
 21
-319.007467
 31
0.0
 12
175.333426
 22
-277.3408
 32
0.0
 13
175.333426
 23
-277.3408
 33
0.0
  0
MTEXT
  5
481
330
477
100
AcDbEntity
  8
0
 62
     5
 48
100.0
100
AcDbMText
 10
1114.833426
 20
-89.5408
 30
0.0
 40
200.0
 41
0.0
 71
     5
 72
     1
  1
223,6
 73
     1
 44
1.0
  0
POINT
  5
482
330
477
100
AcDbEntity
  8
Defpoints
 62
     0
100
AcDbPoint
 10
-48.262376
 20
-277.3408
 30
0.0
  0
POINT
  5
487
330
477
100
AcDbEntity
  8
Defpoints
 62
     0
100
AcDbPoint
 10
175.333426
 20
-267.619243
 30
0.0
  0
POINT
  5
488
330
477
100
AcDbEntity
  8
Defpoints
 62
     0
100
AcDbPoint
 10
175.333426
 20
-277.3408
 30
0.0
  0
ENDBLK
  5
479
330
477
100
AcDbEntity
  8
0
100
AcDbBlockEnd
  0
BLOCK
  5
48B
330
48A
100
AcDbEntity
  8
0
100
AcDbBlockBegin
  2
*D30
 70
     1
 10
0.0
 20
0.0
 30
0.0
  3
*D30
  1
*D30
  0
LINE
  5
48D
330
48A
100
AcDbEntity
  8
0
 62
     0
370
    -2
100
AcDbLine
 10
-106.591716
 20
-312.056366
 30
0.0
 11
-106.591716
 21
150.443634
 31
0.0
  0
LINE
  5
48E
330
48A
100
AcDbEntity
  8
0
 62
     0
370
    -2
100
AcDbLine
 10
893.408284
 20
-312.056366
 30
0.0
 11
893.408284
 21
150.443634
 31
0.0
  0
LINE
  5
48F
330
48A
100
AcDbEntity
  8
0
 62
     5
370
    -2
100
AcDbLine
 10
143.408284
 20
25.443634
 30
0.0
 11
643.408284
 21
25.443634
 31
0.0
  0
SOLID
  5
490
330
48A
100
AcDbEntity
  8
0
 62
     5
100
AcDbTrace
 10
143.408284
 20
67.110301
 30
0.0
 11
143.408284
 21
-16.223033
 31
0.0
 12
-106.591716
 22
25.443634
 32
0.0
 13
-106.591716
 23
25.443634
 33
0.0
  0
SOLID
  5
491
330
48A
100
AcDbEntity
  8
0
 62
     5
100
AcDbTrace
 10
643.408284
 20
-16.223033
 30
0.0
 11
643.408284
 21
67.110301
 31
0.0
 12
893.408284
 22
25.443634
 32
0.0
 13
893.408284
 23
25.443634
 33
0.0
  0
MTEXT
  5
492
330
48A
100
AcDbEntity
  8
0
 62
     5
 48
100.0
100
AcDbMText
 10
393.408284
 20
187.943634
 30
0.0
 40
200.0
 41
0.0
 71
     5
 72
     1
  1
1000
 73
     1
 44
1.0
  0
POINT
  5
493
330
48A
100
AcDbEntity
  8
Defpoints
 62
     0
100
AcDbPoint
 10
-106.591716
 20
-374.556366
 30
0.0
  0
POINT
  5
494
330
48A
100
AcDbEntity
  8
Defpoints
 62
     0
100
AcDbPoint
 10
893.408284
 20
-374.556366
 30
0.0
  0
POINT
  5
495
330
48A
100
AcDbEntity
  8
Defpoints
 62
     0
100
AcDbPoint
 10
893.408284
 20
25.443634
 30
0.0
  0
ENDBLK
  5
48C
330
48A
100
AcDbEntity
  8
0
100
AcDbBlockEnd
  0
BLOCK
  5
49C
330
49B
100
AcDbEntity
  8
0
100
AcDbBlockBegin
  2
*D31
 70
     1
 10
0.0
 20
0.0
 30
0.0
  3
*D31
  1
*D31
  0
LINE
  5
49E
330
49B
100
AcDbEntity
  8
0
 62
     0
370
    -2
100
AcDbLine
 10
-633.986162
 20
939.594048
 30
0.0
 11
-633.986162
 21
1402.094048
 31
0.0
  0
LINE
  5
49F
330
49B
100
AcDbEntity
  8
0
 62
     0
370
    -2
100
AcDbLine
 10
366.013838
 20
939.594048
 30
0.0
 11
366.013838
 21
1402.094048
 31
0.0
  0
LINE
  5
4A0
330
49B
100
AcDbEntity
  8
0
 62
     5
370
    -2
100
AcDbLine
 10
-613.986162
 20
1277.094048
 30
0.0
 11
346.013838
 21
1277.094048
 31
0.0
  0
SOLID
  5
4A1
330
49B
100
AcDbEntity
  8
0
 62
     5
100
AcDbTrace
 10
-613.986162
 20
1280.427381
 30
0.0
 11
-613.986162
 21
1273.760715
 31
0.0
 12
-633.986162
 22
1277.094048
 32
0.0
 13
-633.986162
 23
1277.094048
 33
0.0
  0
SOLID
  5
4A2
330
49B
100
AcDbEntity
  8
0
 62
     5
100
AcDbTrace
 10
346.013838
 20
1273.760715
 30
0.0
 11
346.013838
 21
1280.427381
 31
0.0
 12
366.013838
 22
1277.094048
 32
0.0
 13
366.013838
 23
1277.094048
 33
0.0
  0
MTEXT
  5
4A3
330
49B
100
AcDbEntity
  8
0
 62
     5
 48
100.0
100
AcDbMText
 10
-133.986162
 20
1439.594048
 30
0.0
 40
200.0
 41
0.0
 71
     5
 72
     1
  1
1000
 73
     1
 44
1.0
  0
POINT
  5
4A4
330
49B
100
AcDbEntity
  8
Defpoints
 62
     0
100
AcDbPoint
 10
-633.986162
 20
877.094048
 30
0.0
  0
POINT
  5
4A5
330
49B
100
AcDbEntity
  8
Defpoints
 62
     0
100
AcDbPoint
 10
366.013838
 20
877.094048
 30
0.0
  0
POINT
  5
4A6
330
49B
100
AcDbEntity
  8
Defpoints
 62
     0
100
AcDbPoint
 10
366.013838
 20
1277.094048
 30
0.0
  0
ENDBLK
  5
49D
330
49B
100
AcDbEntity
  8
0
100
AcDbBlockEnd
  0
BLOCK
  5
4AD
330
4AC
100
AcDbEntity
  8
0
100
AcDbBlockBegin
  2
*D32
 70
     1
 10
0.0
 20
0.0
 30
0.0
  3
*D32
  1
*D32
  0
LINE
  5
4AF
330
4AC
100
AcDbEntity
  8
0
 62
     0
370
    -2
100
AcDbLine
 10
-945.075974
 20
37.919672
 30
0.0
 11
-945.075974
 21
260.419674
 31
0.0
  0
LINE
  5
4B0
330
4AC
100
AcDbEntity
  8
0
 62
     0
370
    -2
100
AcDbLine
 10
-648.568497
 20
3.894224
 30
0.0
 11
-648.568497
 21
260.419674
 31
0.0
  0
LINE
  5
4B1
330
4AC
100
AcDbEntity
  8
0
 62
     5
370
    -2
100
AcDbLine
 10
-905.075973
 20
135.419674
 30
0.0
 11
-688.568498
 21
135.419674
 31
0.0
  0
SOLID
  5
4B2
330
4AC
100
AcDbEntity
  8
0
 62
     5
100
AcDbTrace
 10
-905.075973
 20
142.086341
 30
0.0
 11
-905.075973
 21
128.753008
 31
0.0
 12
-945.075974
 22
135.419674
 32
0.0
 13
-945.075974
 23
135.419674
 33
0.0
  0
SOLID
  5
4B3
330
4AC
100
AcDbEntity
  8
0
 62
     5
100
AcDbTrace
 10
-688.568498
 20
128.753008
 30
0.0
 11
-688.568498
 21
142.086341
 31
0.0
 12
-648.568497
 22
135.419674
 32
0.0
 13
-648.568497
 23
135.419674
 33
0.0
  0
MTEXT
  5
4B4
330
4AC
100
AcDbEntity
  8
0
 62
     5
 48
100.0
100
AcDbMText
 10
-796.822235
 20
222.979675
 30
0.0
 40
40.000001
 41
0.0
 71
     5
 72
     1
  1
296,51
 73
     1
 44
1.0
  0
POINT
  5
4B5
330
4AC
100
AcDbEntity
  8
Defpoints
 62
     0
100
AcDbPoint
 10
-945.075974
 20
-24.580328
 30
0.0
  0
POINT
  5
4B6
330
4AC
100
AcDbEntity
  8
Defpoints
 62
     0
100
AcDbPoint
 10
-648.568497
 20
-58.605776
 30
0.0
  0
POINT
  5
4B7
330
4AC
100
AcDbEntity
  8
Defpoints
 62
     0
100
AcDbPoint
 10
-648.568497
 20
135.419674
 30
0.0
  0
ENDBLK
  5
4AE
330
4AC
100
AcDbEntity
  8
0
100
AcDbBlockEnd
  0
BLOCK
  5
4BF
330
4BE
100
AcDbEntity
  8
0
100
AcDbBlockBegin
  2
*D33
 70
     1
 10
0.0
 20
0.0
 30
0.0
  3
*D33
  1
*D33
  0
LINE
  5
4C1
330
4BE
100
AcDbEntity
  8
0
 62
     0
370
    -2
100
AcDbLine
 10
-511.072864
 20
364.118424
 30
0.0
 11
-710.778305
 21
690.345324
 31
0.0
  0
LINE
  5
4C2
330
4BE
100
AcDbEntity
  8
0
 62
     0
370
    -2
100
AcDbLine
 10
-1150.265211
 20
-27.17423
 30
0.0
 11
-1349.970652
 21
299.05267
 31
0.0
  0
LINE
  5
4C3
330
4BE
100
AcDbEntity
  8
0
 62
     5
370
    -2
100
AcDbLine
 10
-679.630321
 20
562.850998
 30
0.0
 11
-822.078468
 21
475.648901
 31
0.0
  0
LINE
  5
4C4
330
4BE
100
AcDbEntity
  8
0
 62
     5
370
    -2
100
AcDbLine
 10
-1250.592206
 20
213.326803
 30
0.0
 11
-1108.144059
 21
300.5289
 31
0.0
  0
SOLID
  5
4C5
330
4BE
100
AcDbEntity
  8
0
 62
     5
100
AcDbTrace
 10
-676.149616
 20
557.165126
 30
0.0
 11
-683.111026
 21
568.53687
 31
0.0
 12
-645.51509
 22
583.735227
 32
0.0
 13
-645.51509
 23
583.735227
 33
0.0
  0
SOLID
  5
4C6
330
4BE
100
AcDbEntity
  8
0
 62
     5
100
AcDbTrace
 10
-1254.07291
 20
219.012675
 30
0.0
 11
-1247.111501
 21
207.640931
 31
0.0
 12
-1284.707437
 22
192.442573
 32
0.0
 13
-1284.707437
 23
192.442573
 33
0.0
  0
MTEXT
  5
4C7
330
4BE
100
AcDbEntity
  8
0
 62
     5
 48
100.0
100
AcDbMText
 10
-965.111263
 20
388.0889
 30
0.0
 40
40.000001
 41
0.0
 71
     5
 72
     1
  1
749,45
 73
     1
 44
1.0
  0
POINT
  5
4C8
330
4BE
100
AcDbEntity
  8
Defpoints
 62
     0
100
AcDbPoint
 10
-478.441256
 20
310.813375
 30
0.0
  0
POINT
  5
4C9
330
4BE
100
AcDbEntity
  8
Defpoints
 62
     0
100
AcDbPoint
 10
-1117.633604
 20
-80.479279
 30
0.0
  0
POINT
  5
4D0
330
4BE
100
AcDbEntity
  8
Defpoints
 62
     0
100
AcDbPoint
 10
-1284.707437
 20
192.442573
 30
0.0
  0
ENDBLK
  5
4C0
330
4BE
100
AcDbEntity
  8
0
100
AcDbBlockEnd
  0
BLOCK
  5
4D3
330
4D2
100
AcDbEntity
  8
0
100
AcDbBlockBegin
  2
*D34
 70
     1
 10
0.0
 20
0.0
 30
0.0
  3
*D34
  1
*D34
  0
LINE
  5
4D5
330
4D2
100
AcDbEntity
  8
0
 62
     0
370
    -2
100
AcDbLine
 10
1247.117025
 20
440.812438
 30
0.0
 11
1247.117025
 21
378.312438
 31
0.0
  0
LINE
  5
4D6
330
4D2
100
AcDbEntity
  8
0
 62
     0
370
    -2
100
AcDbLine
 10
847.117025
 20
440.812438
 30
0.0
 11
847.117025
 21
378.312438
 31
0.0
  0
LINE
  5
4D7
330
4D2
100
AcDbEntity
  8
0
 62
     5
370
    -2
100
AcDbLine
 10
1207.117024
 20
503.312438
 30
0.0
 11
887.117026
 21
503.312438
 31
0.0
  0
SOLID
  5
4D8
330
4D2
100
AcDbEntity
  8
0
 62
     5
100
AcDbTrace
 10
1207.117024
 20
496.645771
 30
0.0
 11
1207.117024
 21
509.979105
 31
0.0
 12
1247.117025
 22
503.312438
 32
0.0
 13
1247.117025
 23
503.312438
 33
0.0
  0
SOLID
  5
4D9
330
4D2
100
AcDbEntity
  8
0
 62
     5
100
AcDbTrace
 10
887.117026
 20
509.979105
 30
0.0
 11
887.117026
 21
496.645771
 31
0.0
 12
847.117025
 22
503.312438
 32
0.0
 13
847.117025
 23
503.312438
 33
0.0
  0
MTEXT
  5
4DA
330
4D2
100
AcDbEntity
  8
0
 62
     5
 48
100.0
100
AcDbMText
 10
1047.117025
 20
585.812438
 30
0.0
 40
40.000001
 41
0.0
 71
     5
 72
     1
  1
400
 73
     1
 44
1.0
  0
POINT
  5
4DB
330
4D2
100
AcDbEntity
  8
Defpoints
 62
     0
100
AcDbPoint
 10
1247.117025
 20
503.312438
 30
0.0
  0
POINT
  5
4DC
330
4D2
100
AcDbEntity
  8
Defpoints
 62
     0
100
AcDbPoint
 10
847.117025
 20
503.312438
 30
0.0
  0
POINT
  5
4DD
330
4D2
100
AcDbEntity
  8
Defpoints
 62
     0
100
AcDbPoint
 10
847.117025
 20
503.312438
 30
0.0
  0
ENDBLK
  5
4D4
330
4D2
100
AcDbEntity
  8
0
100
AcDbBlockEnd
  0
BLOCK
  5
4E2
330
4E1
100
AcDbEntity
  8
0
100
AcDbBlockBegin
  2
*D35
 70
     1
 10
0.0
 20
0.0
 30
0.0
  3
*D35
  1
*D35
  0
LINE
  5
4E4
330
4E1
100
AcDbEntity
  8
0
 62
     5
370
    -2
100
AcDbLine
 10
1163.273274
 20
542.366115
 30
0.0
 11
878.193272
 21
542.366115
 31
0.0
  0
LINE
  5
4E5
330
4E1
100
AcDbEntity
  8
0
 62
     0
370
    -2
100
AcDbLine
 10
1183.617025
 20
503.312438
 30
0.0
 11
1029.623975
 21
503.312438
 31
0.0
  0
LINE
  5
4E6
330
4E1
100
AcDbEntity
  8
0
 62
     0
370
    -2
100
AcDbLine
 10
1247.117025
 20
566.812438
 30
0.0
 11
1247.117025
 21
720.805487
 31
0.0
  0
ARC
  5
4E7
330
4E1
100
AcDbEntity
  8
0
 62
     5
370
    -2
100
AcDbCircle
 10
1247.117025
 20
503.312438
 30
0.0
 40
92.49304957598088
100
AcDbArc
 50
155.024313
 51
180.0
  0
ARC
  5
4E8
330
4E1
100
AcDbEntity
  8
0
 62
     5
370
    -2
100
AcDbCircle
 10
1247.117025
 20
503.312438
 30
0.0
 40
92.49304957598088
100
AcDbArc
 50
204.975687
 51
65.024313
  0
SOLID
  5
4E9
330
4E1
100
AcDbEntity
  8
0
 62
     5
100
AcDbTrace
 10
1169.78222
 20
465.700311
 30
0.0
 11
1156.764328
 21
462.817211
 31
0.0
 12
1154.623975
 22
503.312438
 32
0.0
 13
1154.623975
 23
503.312438
 33
0.0
  0
SOLID
  5
4EA
330
4E1
100
AcDbEntity
  8
0
 62
     5
100
AcDbTrace
 10
1287.612252
 20
593.665135
 30
0.0
 11
1284.729152
 21
580.647242
 31
0.0
 12
1247.117025
 22
595.805487
 32
0.0
 13
1247.117025
 23
595.805487
 33
0.0
  0
MTEXT
  5
4EB
330
4E1
100
AcDbEntity
  8
0
 62
     5
 48
100.0
100
AcDbMText
 10
1000.733273
 20
626.786115
 30
0.0
 40
40.000001
 41
0.0
 71
     5
 72
     1
  1
270%%d
 73
     1
 44
1.0
  0
POINT
  5
4EC
330
4E1
100
AcDbEntity
  8
Defpoints
 62
     0
100
AcDbPoint
 10
1247.117025
 20
503.312438
 30
0.0
  0
POINT
  5
4ED
330
4E1
100
AcDbEntity
  8
Defpoints
 62
     0
100
AcDbPoint
 10
1246.117025
 20
503.312438
 30
0.0
  0
POINT
  5
4EE
330
4E1
100
AcDbEntity
  8
Defpoints
 62
     0
100
AcDbPoint
 10
1247.117025
 20
504.312438
 30
0.0
  0
POINT
  5
4EF
330
4E1
100
AcDbEntity
  8
Defpoints
 62
     0
100
AcDbPoint
 10
1339.610075
 20
503.312438
 30
0.0
  0
ENDBLK
  5
4E3
330
4E1
100
AcDbEntity
  8
0
100
AcDbBlockEnd
  0
BLOCK
  5
4F5
330
4F4
100
AcDbEntity
  8
0
100
AcDbBlockBegin
  2
*D36
 70
     1
 10
0.0
 20
0.0
 30
0.0
  3
*D36
  1
*D36
  0
LINE
  5
4F7
330
4F4
100
AcDbEntity
  8
0
 62
     0
370
    -2
100
AcDbLine
 10
909.617025
 20
403.312438
 30
0.0
 11
1372.117025
 21
403.312438
 31
0.0
  0
LINE
  5
4F8
330
4F4
100
AcDbEntity
  8
0
 62
     0
370
    -2
100
AcDbLine
 10
1309.617025
 20
503.312438
 30
0.0
 11
1372.117025
 21
503.312438
 31
0.0
  0
LINE
  5
4F9
330
4F4
100
AcDbEntity
  8
0
 62
     5
370
    -2
100
AcDbLine
 10
1247.117025
 20
583.312439
 30
0.0
 11
1397.017026
 21
583.312439
 31
0.0
  0
LINE
  5
4FA
330
4F4
100
AcDbEntity
  8
0
 62
     5
370
    -2
100
AcDbLine
 10
1247.117025
 20
403.312438
 30
0.0
 11
1247.117025
 21
503.312438
 31
0.0
  0
LINE
  5
4FB
330
4F4
100
AcDbEntity
  8
0
 62
     5
370
    -2
100
AcDbLine
 10
1247.117025
 20
363.312437
 30
0.0
 11
1247.117025
 21
323.312437
 31
0.0
  0
LINE
  5
4FC
330
4F4
100
AcDbEntity
  8
0
 62
     5
370
    -2
100
AcDbLine
 10
1247.117025
 20
543.312438
 30
0.0
 11
1247.117025
 21
583.312439
 31
0.0
  0
SOLID
  5
4FD
330
4F4
100
AcDbEntity
  8
0
 62
     5
100
AcDbTrace
 10
1253.783692
 20
363.312437
 30
0.0
 11
1240.450358
 21
363.312437
 31
0.0
 12
1247.117025
 22
403.312438
 32
0.0
 13
1247.117025
 23
403.312438
 33
0.0
  0
SOLID
  5
4FE
330
4F4
100
AcDbEntity
  8
0
 62
     5
100
AcDbTrace
 10
1240.450358
 20
543.312438
 30
0.0
 11
1253.783692
 21
543.312438
 31
0.0
 12
1247.117025
 22
503.312438
 32
0.0
 13
1247.117025
 23
503.312438
 33
0.0
  0
MTEXT
  5
4FF
330
4F4
100
AcDbEntity
  8
0
 62
     5
 48
100.0
100
AcDbMText
 10
1353.317026
 20
665.812439
 30
0.0
 40
40.000001
 41
0.0
 71
     5
 72
     1
  1
100
 73
     1
 44
1.0
  0
POINT
  5
500
330
4F4
100
AcDbEntity
  8
Defpoints
 62
     0
100
AcDbPoint
 10
847.117025
 20
403.312438
 30
0.0
  0
POINT
  5
501
330
4F4
100
AcDbEntity
  8
Defpoints
 62
     0
100
AcDbPoint
 10
1247.117025
 20
503.312438
 30
0.0
  0
POINT
  5
504
330
4F4
100
AcDbEntity
  8
Defpoints
 62
     0
100
AcDbPoint
 10
1247.117025
 20
503.312438
 30
0.0
  0
ENDBLK
  5
4F6
330
4F4
100
AcDbEntity
  8
0
100
AcDbBlockEnd
  0
BLOCK
  5
507
330
506
100
AcDbEntity
  8
0
100
AcDbBlockBegin
  2
*D37
 70
     1
 10
0.0
 20
0.0
 30
0.0
  3
*D37
  1
*D37
  0
LINE
  5
509
330
506
100
AcDbEntity
  8
0
 62
     5
370
    -2
100
AcDbLine
 10
1155.447361
 20
542.499257
 30
0.0
 11
870.367359
 21
542.499257
 31
0.0
  0
LINE
  5
50A
330
506
100
AcDbEntity
  8
0
 62
     0
370
    -2
100
AcDbLine
 10
1183.617025
 20
503.312438
 30
0.0
 11
1022.422822
 21
503.312438
 31
0.0
  0
LINE
  5
50B
330
506
100
AcDbEntity
  8
0
 62
     0
370
    -2
100
AcDbLine
 10
1247.117025
 20
566.812438
 30
0.0
 11
1247.117025
 21
728.00664
 31
0.0
  0
ARC
  5
50C
330
506
100
AcDbEntity
  8
0
 62
     5
370
    -2
100
AcDbCircle
 10
1247.117025
 20
503.312438
 30
0.0
 40
99.69420262437984
100
AcDbArc
 50
156.854329
 51
180.0
  0
ARC
  5
50D
330
506
100
AcDbEntity
  8
0
 62
     5
370
    -2
100
AcDbCircle
 10
1247.117025
 20
503.312438
 30
0.0
 40
99.69420262437984
100
AcDbArc
 50
203.145671
 51
66.854329
  0
SOLID
  5
50E
330
506
100
AcDbEntity
  8
0
 62
     5
100
AcDbTrace
 10
1161.978498
 20
465.463042
 30
0.0
 11
1148.916225
 21
462.788195
 31
0.0
 12
1147.422822
 22
503.312438
 32
0.0
 13
1147.422822
 23
503.312438
 33
0.0
  0
SOLID
  5
50F
330
506
100
AcDbEntity
  8
0
 62
     5
100
AcDbTrace
 10
1287.641268
 20
601.513238
 30
0.0
 11
1284.966421
 21
588.450965
 31
0.0
 12
1247.117025
 22
603.00664
 32
0.0
 13
1247.117025
 23
603.00664
 33
0.0
  0
MTEXT
  5
510
330
506
100
AcDbEntity
  8
0
 62
     5
 48
100.0
100
AcDbMText
 10
992.90736
 20
626.919258
 30
0.0
 40
40.000001
 41
0.0
 71
     5
 72
     1
  1
270%%d
 73
     1
 44
1.0
  0
POINT
  5
511
330
506
100
AcDbEntity
  8
Defpoints
 62
     0
100
AcDbPoint
 10
1247.117025
 20
503.312438
 30
0.0
  0
POINT
  5
512
330
506
100
AcDbEntity
  8
Defpoints
 62
     0
100
AcDbPoint
 10
1246.117025
 20
503.312438
 30
0.0
  0
POINT
  5
513
330
506
100
AcDbEntity
  8
Defpoints
 62
     0
100
AcDbPoint
 10
1247.117025
 20
504.312438
 30
0.0
  0
POINT
  5
514
330
506
100
AcDbEntity
  8
Defpoints
 62
     0
100
AcDbPoint
 10
1346.811228
 20
503.312438
 30
0.0
  0
ENDBLK
  5
508
330
506
100
AcDbEntity
  8
0
100
AcDbBlockEnd
  0
BLOCK
  5
51A
330
519
100
AcDbEntity
  8
0
100
AcDbBlockBegin
  2
*D38
 70
     1
 10
0.0
 20
0.0
 30
0.0
  3
*D38
  1
*D38
  0
LINE
  5
51C
330
519
100
AcDbEntity
  8
0
 62
     0
370
    -2
100
AcDbLine
 10
1431.237145
 20
506.26232
 30
0.0
 11
1494.132533
 21
506.26232
 31
0.0
  0
LINE
  5
51D
330
519
100
AcDbEntity
  8
0
 62
     0
370
    -2
100
AcDbLine
 10
1431.632533
 20
405.670393
 30
0.0
 11
1494.132533
 21
405.670393
 31
0.0
  0
LINE
  5
51E
330
519
100
AcDbEntity
  8
0
 62
     5
370
    -2
100
AcDbLine
 10
1369.132533
 20
325.670392
 30
0.0
 11
1219.232532
 21
325.670392
 31
0.0
  0
LINE
  5
51F
330
519
100
AcDbEntity
  8
0
 62
     5
370
    -2
100
AcDbLine
 10
1369.132533
 20
506.26232
 30
0.0
 11
1369.132533
 21
405.670393
 31
0.0
  0
LINE
  5
520
330
519
100
AcDbEntity
  8
0
 62
     5
370
    -2
100
AcDbLine
 10
1369.132533
 20
546.262321
 30
0.0
 11
1369.132533
 21
586.262321
 31
0.0
  0
LINE
  5
521
330
519
100
AcDbEntity
  8
0
 62
     5
370
    -2
100
AcDbLine
 10
1369.132533
 20
365.670393
 30
0.0
 11
1369.132533
 21
325.670392
 31
0.0
  0
SOLID
  5
522
330
519
100
AcDbEntity
  8
0
 62
     5
100
AcDbTrace
 10
1362.465867
 20
546.262321
 30
0.0
 11
1375.7992
 21
546.262321
 31
0.0
 12
1369.132533
 22
506.26232
 32
0.0
 13
1369.132533
 23
506.26232
 33
0.0
  0
SOLID
  5
523
330
519
100
AcDbEntity
  8
0
 62
     5
100
AcDbTrace
 10
1375.7992
 20
365.670393
 30
0.0
 11
1362.465867
 21
365.670393
 31
0.0
 12
1369.132533
 22
405.670393
 32
0.0
 13
1369.132533
 23
405.670393
 33
0.0
  0
MTEXT
  5
524
330
519
100
AcDbEntity
  8
0
 62
     5
 48
100.0
100
AcDbMText
 10
1262.932533
 20
408.170392
 30
0.0
 40
40.000001
 41
0.0
 71
     5
 72
     1
  1
100
 73
     1
 44
1.0
  0
POINT
  5
52A
330
519
100
AcDbEntity
  8
Defpoints
 62
     0
100
AcDbPoint
 10
1368.737145
 20
506.26232
 30
0.0
  0
POINT
  5
52B
330
519
100
AcDbEntity
  8
Defpoints
 62
     0
100
AcDbPoint
 10
1369.132533
 20
405.670393
 30
0.0
  0
POINT
  5
52C
330
519
100
AcDbEntity
  8
Defpoints
 62
     0
100
AcDbPoint
 10
1369.132533
 20
405.670393
 30
0.0
  0
ENDBLK
  5
51B
330
519
100
AcDbEntity
  8
0
100
AcDbBlockEnd
  0
BLOCK
  5
52F
330
52E
100
AcDbEntity
  8
0
100
AcDbBlockBegin
  2
*D39
 70
     1
 10
0.0
 20
0.0
 30
0.0
  3
*D39
  1
*D39
  0
LINE
  5
531
330
52E
100
AcDbEntity
  8
0
 62
     0
370
    -2
100
AcDbLine
 10
1249.109827
 20
401.24557
 30
0.0
 11
1186.609827
 21
401.24557
 31
0.0
  0
LINE
  5
532
330
52E
100
AcDbEntity
  8
0
 62
     0
370
    -2
100
AcDbLine
 10
1249.634139
 20
2.55856
 30
0.0
 11
1186.609827
 21
2.55856
 31
0.0
  0
LINE
  5
533
330
52E
100
AcDbEntity
  8
0
 62
     5
370
    -2
100
AcDbLine
 10
1311.609827
 20
361.245569
 30
0.0
 11
1311.609827
 21
2.55856
 31
0.0
  0
SOLID
  5
534
330
52E
100
AcDbEntity
  8
0
 62
     5
100
AcDbTrace
 10
1318.276493
 20
361.245569
 30
0.0
 11
1304.94316
 21
361.245569
 31
0.0
 12
1311.609827
 22
401.24557
 32
0.0
 13
1311.609827
 23
401.24557
 33
0.0
  0
INSERT
  5
535
330
52E
100
AcDbEntity
  8
0
 62
     5
370
    -2
100
AcDbBlockReference
  2
_DotSmall
 10
1311.609827
 20
2.55856
 30
0.0
 41
40.000001
 42
40.000001
 43
40.000001
 50
270.0
  0
MTEXT
  5
536
330
52E
100
AcDbEntity
  8
0
 62
     5
 48
100.0
100
AcDbMText
 10
1229.109826
 20
181.902065
 30
0.0
 40
40.000001
 41
0.0
 71
     5
 72
     1
  1
400
 11
0.0
 21
1.0
 31
0.0
 73
     1
 44
1.0
  0
POINT
  5
537
330
52E
100
AcDbEntity
  8
Defpoints
 62
     0
100
AcDbPoint
 10
1311.609827
 20
401.24557
 30
0.0
  0
POINT
  5
538
330
52E
100
AcDbEntity
  8
Defpoints
 62
     0
100
AcDbPoint
 10
1312.134139
 20
2.55856
 30
0.0
  0
POINT
  5
539
330
52E
100
AcDbEntity
  8
Defpoints
 62
     0
100
AcDbPoint
 10
1311.609827
 20
2.55856
 30
0.0
  0
ENDBLK
  5
530
330
52E
100
AcDbEntity
  8
0
100
AcDbBlockEnd
  0
BLOCK
  5
541
330
540
100
AcDbEntity
  8
0
100
AcDbBlockBegin
  2
*D40
 70
     1
 10
0.0
 20
0.0
 30
0.0
  3
*D40
  1
*D40
  0
LINE
  5
543
330
540
100
AcDbEntity
  8
0
 62
     5
370
    -2
100
AcDbLine
 10
1052.152413
 20
4.033501
 30
0.0
 11
1246.712414
 21
4.033501
 31
0.0
  0
LINE
  5
544
330
540
100
AcDbEntity
  8
0
 62
     5
370
    -2
100
AcDbLine
 10
1246.712414
 20
4.033501
 30
0.0
 11
1246.712414
 21
4.033501
 31
0.0
  0
LINE
  5
545
330
540
100
AcDbEntity
  8
0
 62
     0
370
    -2
100
AcDbLine
 10
1184.736726
 20
4.033501
 30
0.0
 11
1121.712414
 21
4.033501
 31
0.0
  0
LINE
  5
546
330
540
100
AcDbEntity
  8
0
 62
     0
370
    -2
100
AcDbLine
 10
510.703785
 20
4.033501
 30
0.0
 11
1371.712414
 21
4.033501
 31
0.0
  0
LINE
  5
547
330
540
100
AcDbEntity
  8
0
 62
     5
370
    -2
100
AcDbLine
 10
1246.712414
 20
4.033501
 30
0.0
 11
1246.712414
 21
4.033501
 31
0.0
  0
LINE
  5
548
330
540
100
AcDbEntity
  8
0
 62
     5
370
    -2
100
AcDbLine
 10
1246.712414
 20
44.033502
 30
0.0
 11
1246.712414
 21
84.033503
 31
0.0
  0
INSERT
  5
549
330
540
100
AcDbEntity
  8
0
 62
     5
370
    -2
100
AcDbBlockReference
  2
_DotSmall
 10
1246.712414
 20
4.033501
 30
0.0
 41
40.000001
 42
40.000001
 43
40.000001
 50
90.0
  0
SOLID
  5
54A
330
540
100
AcDbEntity
  8
0
 62
     5
100
AcDbTrace
 10
1240.045747
 20
44.033502
 30
0.0
 11
1253.37908
 21
44.033502
 31
0.0
 12
1246.712414
 22
4.033501
 32
0.0
 13
1246.712414
 23
4.033501
 33
0.0
  0
MTEXT
  5
54B
330
540
100
AcDbEntity
  8
0
 62
     5
 48
100.0
100
AcDbMText
 10
1129.432413
 20
86.533502
 30
0.0
 40
40.000001
 41
0.0
 71
     5
 72
     1
  1
0
 73
     1
 44
1.0
  0
POINT
  5
54C
330
540
100
AcDbEntity
  8
Defpoints
 62
     0
100
AcDbPoint
 10
1247.236726
 20
4.033501
 30
0.0
  0
POINT
  5
54D
330
540
100
AcDbEntity
  8
Defpoints
 62
     0
100
AcDbPoint
 10
448.203785
 20
4.033501
 30
0.0
  0
POINT
  5
550
330
540
100
AcDbEntity
  8
Defpoints
 62
     0
100
AcDbPoint
 10
1246.712414
 20
4.033501
 30
0.0
  0
ENDBLK
  5
542
330
540
100
AcDbEntity
  8
0
100
AcDbBlockEnd
  0
BLOCK
  5
553
330
552
100
AcDbEntity
  8
0
100
AcDbBlockBegin
  2
*D41
 70
     1
 10
0.0
 20
0.0
 30
0.0
  3
*D41
  1
*D41
  0
LINE
  5
555
330
552
100
AcDbEntity
  8
0
 62
     0
370
    -2
100
AcDbLine
 10
510.703785
 20
4.033501
 30
0.0
 11
1371.712414
 21
4.033501
 31
0.0
  0
LINE
  5
556
330
552
100
AcDbEntity
  8
0
 62
     0
370
    -2
100
AcDbLine
 10
714.856474
 20
-155.011213
 30
0.0
 11
1371.712414
 21
-155.011213
 31
0.0
  0
LINE
  5
557
330
552
100
AcDbEntity
  8
0
 62
     5
370
    -2
100
AcDbLine
 10
1246.712414
 20
-235.011214
 30
0.0
 11
1007.452411
 21
-235.011214
 31
0.0
  0
LINE
  5
558
330
552
100
AcDbEntity
  8
0
 62
     5
370
    -2
100
AcDbLine
 10
1246.712414
 20
4.033501
 30
0.0
 11
1246.712414
 21
-155.011213
 31
0.0
  0
LINE
  5
559
330
552
100
AcDbEntity
  8
0
 62
     5
370
    -2
100
AcDbLine
 10
1246.712414
 20
44.033502
 30
0.0
 11
1246.712414
 21
84.033503
 31
0.0
  0
LINE
  5
55A
330
552
100
AcDbEntity
  8
0
 62
     5
370
    -2
100
AcDbLine
 10
1246.712414
 20
-195.011213
 30
0.0
 11
1246.712414
 21
-235.011214
 31
0.0
  0
SOLID
  5
55B
330
552
100
AcDbEntity
  8
0
 62
     5
100
AcDbTrace
 10
1240.045747
 20
44.033502
 30
0.0
 11
1253.37908
 21
44.033502
 31
0.0
 12
1246.712414
 22
4.033501
 32
0.0
 13
1246.712414
 23
4.033501
 33
0.0
  0
SOLID
  5
55C
330
552
100
AcDbEntity
  8
0
 62
     5
100
AcDbTrace
 10
1253.37908
 20
-195.011213
 30
0.0
 11
1240.045747
 21
-195.011213
 31
0.0
 12
1246.712414
 22
-155.011213
 32
0.0
 13
1246.712414
 23
-155.011213
 33
0.0
  0
MTEXT
  5
55D
330
552
100
AcDbEntity
  8
0
 62
     5
 48
100.0
100
AcDbMText
 10
1095.832412
 20
-147.451213
 30
0.0
 40
40.000001
 41
0.0
 71
     5
 72
     1
  1
159,04
 73
     1
 44
1.0
  0
POINT
  5
55E
330
552
100
AcDbEntity
  8
Defpoints
 62
     0
100
AcDbPoint
 10
448.203785
 20
4.033501
 30
0.0
  0
POINT
  5
55F
330
552
100
AcDbEntity
  8
Defpoints
 62
     0
100
AcDbPoint
 10
652.356474
 20
-155.011213
 30
0.0
  0
POINT
  5
562
330
552
100
AcDbEntity
  8
Defpoints
 62
     0
100
AcDbPoint
 10
1246.712414
 20
-155.011213
 30
0.0
  0
ENDBLK
  5
554
330
552
100
AcDbEntity
  8
0
100
AcDbBlockEnd
  0
BLOCK
  5
565
330
564
100
AcDbEntity
  8
0
100
AcDbBlockBegin
  2
*D42
 70
     1
 10
0.0
 20
0.0
 30
0.0
  3
*D42
  1
*D42
  0
LINE
  5
567
330
564
100
AcDbEntity
  8
0
 62
     4
370
    -2
100
AcDbLine
 10
1310.012414
 20
402.720511
 30
0.0
 11
1452.512415
 21
402.720511
 31
0.0
  0
LINE
  5
568
330
564
100
AcDbEntity
  8
0
 62
     4
370
    -2
100
AcDbLine
 10
1310.012414
 20
2.720511
 30
0.0
 11
1452.512415
 21
2.720511
 31
0.0
  0
LINE
  5
569
330
564
100
AcDbEntity
  8
0
 62
     5
370
    -2
100
AcDbLine
 10
1327.512415
 20
362.72051
 30
0.0
 11
1327.512415
 21
285.220511
 31
0.0
  0
LINE
  5
56A
330
564
100
AcDbEntity
  8
0
 62
     5
370
    -2
100
AcDbLine
 10
1327.512415
 20
42.720512
 30
0.0
 11
1327.512415
 21
120.220511
 31
0.0
  0
SOLID
  5
56B
330
564
100
AcDbEntity
  8
0
 62
     5
100
AcDbTrace
 10
1334.179082
 20
362.72051
 30
0.0
 11
1320.845748
 21
362.72051
 31
0.0
 12
1327.512415
 22
402.720511
 32
0.0
 13
1327.512415
 23
402.720511
 33
0.0
  0
SOLID
  5
56C
330
564
100
AcDbEntity
  8
0
 62
     5
100
AcDbTrace
 10
1320.845748
 20
42.720512
 30
0.0
 11
1334.179082
 21
42.720512
 31
0.0
 12
1327.512415
 22
2.720511
 32
0.0
 13
1327.512415
 23
2.720511
 33
0.0
  0
MTEXT
  5
56D
330
564
100
AcDbEntity
  8
0
 62
     5
 48
100.0
100
AcDbMText
 10
1327.512415
 20
202.720511
 30
0.0
 40
40.000001
 41
0.0
 71
     5
 72
     1
  1
400
 73
     1
 44
1.0
  0
POINT
  5
56E
330
564
100
AcDbEntity
  8
Defpoints
 62
     0
100
AcDbPoint
 10
1247.512414
 20
402.720511
 30
0.0
  0
POINT
  5
56F
330
564
100
AcDbEntity
  8
Defpoints
 62
     0
100
AcDbPoint
 10
1247.512414
 20
2.720511
 30
0.0
  0
POINT
  5
596
330
564
100
AcDbEntity
  8
Defpoints
 62
     0
100
AcDbPoint
 10
1327.512415
 20
2.720511
 30
0.0
  0
ENDBLK
  5
566
330
564
100
AcDbEntity
  8
0
100
AcDbBlockEnd
  0
BLOCK
  5
574
330
573
100
AcDbEntity
  8
0
100
AcDbBlockBegin
  2
*D43
 70
     1
 10
0.0
 20
0.0
 30
0.0
  3
*D43
  1
*D43
  0
LINE
  5
576
330
573
100
AcDbEntity
  8
0
 62
     0
370
    -2
100
AcDbLine
 10
1310.012414
 20
402.720511
 30
0.0
 11
1452.512415
 21
402.720511
 31
0.0
  0
LINE
  5
577
330
573
100
AcDbEntity
  8
0
 62
     0
370
    -2
100
AcDbLine
 10
1362.656985
 20
314.882569
 30
0.0
 11
1202.512415
 21
314.882569
 31
0.0
  0
LINE
  5
578
330
573
100
AcDbEntity
  8
0
 62
     5
370
    -2
100
AcDbLine
 10
1327.512415
 20
274.882568
 30
0.0
 11
1327.512415
 21
-41.917435
 31
0.0
  0
LINE
  5
579
330
573
100
AcDbEntity
  8
0
 62
     5
370
    -2
100
AcDbLine
 10
1327.512415
 20
402.720511
 30
0.0
 11
1327.512415
 21
314.882569
 31
0.0
  0
LINE
  5
57A
330
573
100
AcDbEntity
  8
0
 62
     5
370
    -2
100
AcDbLine
 10
1327.512415
 20
442.720512
 30
0.0
 11
1327.512415
 21
482.720512
 31
0.0
  0
SOLID
  5
57B
330
573
100
AcDbEntity
  8
0
 62
     5
100
AcDbTrace
 10
1320.845748
 20
442.720512
 30
0.0
 11
1334.179082
 21
442.720512
 31
0.0
 12
1327.512415
 22
402.720511
 32
0.0
 13
1327.512415
 23
402.720511
 33
0.0
  0
SOLID
  5
57C
330
573
100
AcDbEntity
  8
0
 62
     5
100
AcDbTrace
 10
1334.179082
 20
274.882568
 30
0.0
 11
1320.845748
 21
274.882568
 31
0.0
 12
1327.512415
 22
314.882569
 32
0.0
 13
1327.512415
 23
314.882569
 33
0.0
  0
MTEXT
  5
57D
330
573
100
AcDbEntity
  8
0
 62
     5
 48
100.0
100
AcDbMText
 10
1239.952414
 20
96.482566
 30
0.0
 40
40.000001
 41
0.0
 71
     5
 72
     1
  1
87,84
 11
0.0
 21
1.0
 31
0.0
 73
     1
 44
1.0
  0
POINT
  5
57E
330
573
100
AcDbEntity
  8
Defpoints
 62
     0
100
AcDbPoint
 10
1247.512414
 20
402.720511
 30
0.0
  0
POINT
  5
581
330
573
100
AcDbEntity
  8
Defpoints
 62
     0
100
AcDbPoint
 10
1425.156985
 20
314.882569
 30
0.0
  0
POINT
  5
582
330
573
100
AcDbEntity
  8
Defpoints
 62
     0
100
AcDbPoint
 10
1327.512415
 20
314.882569
 30
0.0
  0
ENDBLK
  5
575
330
573
100
AcDbEntity
  8
0
100
AcDbBlockEnd
  0
BLOCK
  5
585
330
584
100
AcDbEntity
  8
0
100
AcDbBlockBegin
  2
*D44
 70
     1
 10
0.0
 20
0.0
 30
0.0
  3
*D44
  1
*D44
  0
LINE
  5
587
330
584
100
AcDbEntity
  8
0
 62
     0
370
    -2
100
AcDbLine
 10
1362.656985
 20
314.882569
 30
0.0
 11
1202.512415
 21
314.882569
 31
0.0
  0
LINE
  5
588
330
584
100
AcDbEntity
  8
0
 62
     0
370
    -2
100
AcDbLine
 10
1265.012415
 20
314.882569
 30
0.0
 11
1202.512415
 21
314.882569
 31
0.0
  0
LINE
  5
589
330
584
100
AcDbEntity
  8
0
 62
     5
370
    -2
100
AcDbLine
 10
1327.512415
 20
274.882568
 30
0.0
 11
1327.512415
 21
80.322567
 31
0.0
  0
LINE
  5
58A
330
584
100
AcDbEntity
  8
0
 62
     5
370
    -2
100
AcDbLine
 10
1327.512415
 20
314.882569
 30
0.0
 11
1327.512415
 21
314.882569
 31
0.0
  0
LINE
  5
58B
330
584
100
AcDbEntity
  8
0
 62
     5
370
    -2
100
AcDbLine
 10
1327.512415
 20
354.882569
 30
0.0
 11
1327.512415
 21
394.88257
 31
0.0
  0
SOLID
  5
58C
330
584
100
AcDbEntity
  8
0
 62
     5
100
AcDbTrace
 10
1320.845748
 20
354.882569
 30
0.0
 11
1334.179082
 21
354.882569
 31
0.0
 12
1327.512415
 22
314.882569
 32
0.0
 13
1327.512415
 23
314.882569
 33
0.0
  0
SOLID
  5
58D
330
584
100
AcDbEntity
  8
0
 62
     5
100
AcDbTrace
 10
1334.179082
 20
274.882568
 30
0.0
 11
1320.845748
 21
274.882568
 31
0.0
 12
1327.512415
 22
314.882569
 32
0.0
 13
1327.512415
 23
314.882569
 33
0.0
  0
MTEXT
  5
58E
330
584
100
AcDbEntity
  8
0
 62
     5
 48
100.0
100
AcDbMText
 10
1245.012414
 20
157.602567
 30
0.0
 40
40.000001
 41
0.0
 71
     5
 72
     1
  1
0
 11
-6.123233995736766E-17
 21
1.0
 31
0.0
 73
     1
 44
1.0
  0
POINT
  5
58F
330
584
100
AcDbEntity
  8
Defpoints
 62
     0
100
AcDbPoint
 10
1425.156985
 20
314.882569
 30
0.0
  0
POINT
  5
594
330
584
100
AcDbEntity
  8
Defpoints
 62
     0
100
AcDbPoint
 10
1327.512415
 20
314.882569
 30
0.0
  0
POINT
  5
595
330
584
100
AcDbEntity
  8
Defpoints
 62
     0
100
AcDbPoint
 10
1327.512415
 20
314.882569
 30
0.0
  0
ENDBLK
  5
586
330
584
100
AcDbEntity
  8
0
100
AcDbBlockEnd
  0
BLOCK
  5
599
330
598
100
AcDbEntity
  8
0
100
AcDbBlockBegin
  2
*D45
 70
     1
 10
0.0
 20
0.0
 30
0.0
  3
*D45
  1
*D45
  0
LINE
  5
59B
330
598
100
AcDbEntity
  8
0
 62
     0
370
    -2
100
AcDbLine
 10
447.484813
 20
66.533501
 30
0.0
 11
447.484813
 21
129.033501
 31
0.0
  0
LINE
  5
59C
330
598
100
AcDbEntity
  8
0
 62
     0
370
    -2
100
AcDbLine
 10
1247.484813
 20
66.533501
 30
0.0
 11
1247.484813
 21
129.033501
 31
0.0
  0
LINE
  5
59D
330
598
100
AcDbEntity
  8
0
 62
     5
370
    -2
100
AcDbLine
 10
487.484813
 20
4.033501
 30
0.0
 11
1207.484812
 21
4.033501
 31
0.0
  0
SOLID
  5
59E
330
598
100
AcDbEntity
  8
0
 62
     5
100
AcDbTrace
 10
487.484813
 20
10.700168
 30
0.0
 11
487.484813
 21
-2.633165
 31
0.0
 12
447.484813
 22
4.033501
 32
0.0
 13
447.484813
 23
4.033501
 33
0.0
  0
SOLID
  5
59F
330
598
100
AcDbEntity
  8
0
 62
     5
100
AcDbTrace
 10
1207.484812
 20
-2.633165
 30
0.0
 11
1207.484812
 21
10.700168
 31
0.0
 12
1247.484813
 22
4.033501
 32
0.0
 13
1247.484813
 23
4.033501
 33
0.0
  0
MTEXT
  5
5A0
330
598
100
AcDbEntity
  8
0
 62
     5
 48
100.0
100
AcDbMText
 10
847.484813
 20
87.113502
 30
0.0
 40
40.000001
 41
0.0
 71
     5
 72
     1
  1
800
 73
     1
 44
1.0
  0
POINT
  5
5A1
330
598
100
AcDbEntity
  8
Defpoints
 62
     0
100
AcDbPoint
 10
447.484813
 20
4.033501
 30
0.0
  0
POINT
  5
5A2
330
598
100
AcDbEntity
  8
Defpoints
 62
     0
100
AcDbPoint
 10
1247.484813
 20
4.033501
 30
0.0
  0
POINT
  5
5A3
330
598
100
AcDbEntity
  8
Defpoints
 62
     0
100
AcDbPoint
 10
1247.484813
 20
4.033501
 30
0.0
  0
ENDBLK
  5
59A
330
598
100
AcDbEntity
  8
0
100
AcDbBlockEnd
  0
BLOCK
  5
5A8
330
5A7
100
AcDbEntity
  8
0
100
AcDbBlockBegin
  2
*D46
 70
     1
 10
0.0
 20
0.0
 30
0.0
  3
*D46
  1
*D46
  0
LINE
  5
5AA
330
5A7
100
AcDbEntity
  8
0
 62
     5
370
    -2
100
AcDbLine
 10
11271.863893
 20
-32.362789
 30
0.0
 11
10986.703891
 21
-32.362789
 31
0.0
  0
LINE
  5
5AB
330
5A7
100
AcDbEntity
  8
0
 62
     0
370
    -2
100
AcDbLine
 10
5933.558148
 20
4.075861
 30
0.0
 11
11396.985277
 21
7.720413
 31
0.0
  0
LINE
  5
5AC
330
5A7
100
AcDbEntity
  8
0
 62
     0
370
    -2
100
AcDbLine
 10
5933.558162
 20
4.033501
 30
0.0
 11
11396.986507
 21
4.033501
 31
0.0
  0
ARC
  5
5AD
330
5A7
100
AcDbEntity
  8
0
 62
     5
370
    -2
100
AcDbCircle
 10
5870.058162
 20
4.033501
 30
0.0
 40
5401.928345228501
100
AcDbArc
 50
359.613958
 51
0.038221
  0
ARC
  5
5AE
330
5A7
100
AcDbEntity
  8
0
 62
     5
370
    -2
100
AcDbCircle
 10
5870.058162
 20
4.033501
 30
0.0
 40
5401.928345228501
100
AcDbArc
 50
0.462484
 51
359.575737
  0
SOLID
  5
5AF
330
5A7
100
AcDbEntity
  8
0
 62
     5
100
AcDbTrace
 10
11265.143924
 20
47.607517
 30
0.0
 11
11278.47713
 21
47.665776
 31
0.0
 12
11271.985305
 22
7.637028
 32
0.0
 13
11271.985305
 23
7.637028
 33
0.0
  0
SOLID
  5
5B0
330
5A7
100
AcDbEntity
  8
0
 62
     5
100
AcDbTrace
 10
11278.505033
 20
-35.990908
 30
0.0
 11
11265.171791
 21
-35.941542
 31
0.0
 12
11271.986507
 22
4.033501
 32
0.0
 13
11271.986507
 23
4.033501
 33
0.0
  0
MTEXT
  5
5B1
330
5A7
100
AcDbEntity
  8
0
 62
     5
 48
100.0
100
AcDbMText
 10
11109.283892
 20
52.637212
 30
0.0
 40
40.000001
 41
0.0
 71
     5
 72
     1
  1
360%%d
 73
     1
 44
1.0
  0
POINT
  5
5B2
330
5A7
100
AcDbEntity
  8
Defpoints
 62
     0
100
AcDbPoint
 10
5870.058162
 20
4.033501
 30
0.0
  0
POINT
  5
5B3
330
5A7
100
AcDbEntity
  8
Defpoints
 62
     0
100
AcDbPoint
 10
5871.058162
 20
4.034169
 30
0.0
  0
POINT
  5
5B4
330
5A7
100
AcDbEntity
  8
Defpoints
 62
     0
100
AcDbPoint
 10
5871.058162
 20
4.033501
 30
0.0
  0
POINT
  5
5B5
330
5A7
100
AcDbEntity
  8
Defpoints
 62
     0
100
AcDbPoint
 10
3170.134305
 20
-4674.774147
 30
0.0
  0
ENDBLK
  5
5A9
330
5A7
100
AcDbEntity
  8
0
100
AcDbBlockEnd
  0
BLOCK
  5
5BB
330
5BA
100
AcDbEntity
  8
0
100
AcDbBlockBegin
  2
*D47
 70
     1
 10
0.0
 20
0.0
 30
0.0
  3
*D47
  1
*D47
  0
LINE
  5
5BD
330
5BA
100
AcDbEntity
  8
0
 62
     0
370
    -2
100
AcDbLine
 10
447.484813
 20
66.533501
 30
0.0
 11
447.484813
 21
129.033501
 31
0.0
  0
LINE
  5
5BE
330
5BA
100
AcDbEntity
  8
0
 62
     0
370
    -2
100
AcDbLine
 10
1247.484813
 20
66.533501
 30
0.0
 11
1247.484813
 21
129.033501
 31
0.0
  0
LINE
  5
5BF
330
5BA
100
AcDbEntity
  8
0
 62
     5
370
    -2
100
AcDbLine
 10
487.484813
 20
4.033501
 30
0.0
 11
1207.484812
 21
4.033501
 31
0.0
  0
SOLID
  5
5C0
330
5BA
100
AcDbEntity
  8
0
 62
     5
100
AcDbTrace
 10
487.484813
 20
10.700168
 30
0.0
 11
487.484813
 21
-2.633165
 31
0.0
 12
447.484813
 22
4.033501
 32
0.0
 13
447.484813
 23
4.033501
 33
0.0
  0
SOLID
  5
5C1
330
5BA
100
AcDbEntity
  8
0
 62
     5
100
AcDbTrace
 10
1207.484812
 20
-2.633165
 30
0.0
 11
1207.484812
 21
10.700168
 31
0.0
 12
1247.484813
 22
4.033501
 32
0.0
 13
1247.484813
 23
4.033501
 33
0.0
  0
MTEXT
  5
5C2
330
5BA
100
AcDbEntity
  8
0
 62
     5
 48
100.0
100
AcDbMText
 10
847.484813
 20
87.113502
 30
0.0
 40
40.000001
 41
0.0
 71
     5
 72
     1
  1
800
 73
     1
 44
1.0
  0
POINT
  5
5C3
330
5BA
100
AcDbEntity
  8
Defpoints
 62
     0
100
AcDbPoint
 10
447.484813
 20
4.033501
 30
0.0
  0
POINT
  5
5C4
330
5BA
100
AcDbEntity
  8
Defpoints
 62
     0
100
AcDbPoint
 10
1247.484813
 20
4.033501
 30
0.0
  0
POINT
  5
5C5
330
5BA
100
AcDbEntity
  8
Defpoints
 62
     0
100
AcDbPoint
 10
1247.484813
 20
4.033501
 30
0.0
  0
ENDBLK
  5
5BC
330
5BA
100
AcDbEntity
  8
0
100
AcDbBlockEnd
  0
BLOCK
  5
5CC
330
5CB
100
AcDbEntity
  8
0
100
AcDbBlockBegin
  2
*D48
 70
     1
 10
0.0
 20
0.0
 30
0.0
  3
*D48
  1
*D48
  0
LINE
  5
5CE
330
5CB
100
AcDbEntity
  8
0
 62
     5
370
    -2
100
AcDbLine
 10
11270.69731
 20
-32.363567
 30
0.0
 11
10985.537307
 21
-32.363567
 31
0.0
  0
LINE
  5
5CF
330
5CB
100
AcDbEntity
  8
0
 62
     0
370
    -2
100
AcDbLine
 10
5933.558148
 20
4.075861
 30
0.0
 11
11395.818726
 21
7.719635
 31
0.0
  0
LINE
  5
5D0
330
5CB
100
AcDbEntity
  8
0
 62
     0
370
    -2
100
AcDbLine
 10
5933.558162
 20
4.033501
 30
0.0
 11
11395.819956
 21
4.033501
 31
0.0
  0
ARC
  5
5D1
330
5CB
100
AcDbEntity
  8
0
 62
     5
370
    -2
100
AcDbCircle
 10
5870.058162
 20
4.033501
 30
0.0
 40
5400.761793734746
100
AcDbArc
 50
359.613867
 51
0.038221
  0
ARC
  5
5D2
330
5CB
100
AcDbEntity
  8
0
 62
     5
370
    -2
100
AcDbCircle
 10
5870.058162
 20
4.033501
 30
0.0
 40
5400.761793734746
100
AcDbArc
 50
0.462575
 51
359.575646
  0
SOLID
  5
5D3
330
5CB
100
AcDbEntity
  8
0
 62
     5
100
AcDbTrace
 10
11263.977341
 20
47.606733
 30
0.0
 11
11277.310547
 21
47.665003
 31
0.0
 12
11270.818754
 22
7.63625
 32
0.0
 13
11270.818754
 23
7.63625
 33
0.0
  0
SOLID
  5
5D4
330
5CB
100
AcDbEntity
  8
0
 62
     5
100
AcDbTrace
 10
11277.338449
 20
-35.990913
 30
0.0
 11
11264.005207
 21
-35.941537
 31
0.0
 12
11270.819956
 22
4.033501
 32
0.0
 13
11270.819956
 23
4.033501
 33
0.0
  0
MTEXT
  5
5D5
330
5CB
100
AcDbEntity
  8
0
 62
     5
 48
100.0
100
AcDbMText
 10
11108.117308
 20
52.636434
 30
0.0
 40
40.000001
 41
0.0
 71
     5
 72
     1
  1
360%%d
 73
     1
 44
1.0
  0
POINT
  5
5D6
330
5CB
100
AcDbEntity
  8
Defpoints
 62
     0
100
AcDbPoint
 10
5870.058162
 20
4.033501
 30
0.0
  0
POINT
  5
5D7
330
5CB
100
AcDbEntity
  8
Defpoints
 62
     0
100
AcDbPoint
 10
5871.058162
 20
4.034169
 30
0.0
  0
POINT
  5
5D8
330
5CB
100
AcDbEntity
  8
Defpoints
 62
     0
100
AcDbPoint
 10
5871.058162
 20
4.033501
 30
0.0
  0
POINT
  5
5D9
330
5CB
100
AcDbEntity
  8
Defpoints
 62
     0
100
AcDbPoint
 10
3170.717356
 20
-4673.763754
 30
0.0
  0
ENDBLK
  5
5CD
330
5CB
100
AcDbEntity
  8
0
100
AcDbBlockEnd
  0
BLOCK
  5
5DF
330
5DE
100
AcDbEntity
  8
0
100
AcDbBlockBegin
  2
*D49
 70
     1
 10
0.0
 20
0.0
 30
0.0
  3
*D49
  1
*D49
  0
LINE
  5
5E1
330
5DE
100
AcDbEntity
  8
0
 62
     0
370
    -2
100
AcDbLine
 10
447.484813
 20
66.533501
 30
0.0
 11
447.484813
 21
129.033501
 31
0.0
  0
LINE
  5
5E2
330
5DE
100
AcDbEntity
  8
0
 62
     0
370
    -2
100
AcDbLine
 10
1247.484813
 20
66.533501
 30
0.0
 11
1247.484813
 21
129.033501
 31
0.0
  0
LINE
  5
5E3
330
5DE
100
AcDbEntity
  8
0
 62
     5
370
    -2
100
AcDbLine
 10
487.484813
 20
4.033501
 30
0.0
 11
1207.484812
 21
4.033501
 31
0.0
  0
SOLID
  5
5E4
330
5DE
100
AcDbEntity
  8
0
 62
     5
100
AcDbTrace
 10
487.484813
 20
10.700168
 30
0.0
 11
487.484813
 21
-2.633165
 31
0.0
 12
447.484813
 22
4.033501
 32
0.0
 13
447.484813
 23
4.033501
 33
0.0
  0
SOLID
  5
5E5
330
5DE
100
AcDbEntity
  8
0
 62
     5
100
AcDbTrace
 10
1207.484812
 20
-2.633165
 30
0.0
 11
1207.484812
 21
10.700168
 31
0.0
 12
1247.484813
 22
4.033501
 32
0.0
 13
1247.484813
 23
4.033501
 33
0.0
  0
MTEXT
  5
5E6
330
5DE
100
AcDbEntity
  8
0
 62
     5
 48
100.0
100
AcDbMText
 10
847.484813
 20
87.113502
 30
0.0
 40
40.000001
 41
0.0
 71
     5
 72
     1
  1
800
 73
     1
 44
1.0
  0
POINT
  5
5E7
330
5DE
100
AcDbEntity
  8
Defpoints
 62
     0
100
AcDbPoint
 10
447.484813
 20
4.033501
 30
0.0
  0
POINT
  5
5E8
330
5DE
100
AcDbEntity
  8
Defpoints
 62
     0
100
AcDbPoint
 10
1247.484813
 20
4.033501
 30
0.0
  0
POINT
  5
5E9
330
5DE
100
AcDbEntity
  8
Defpoints
 62
     0
100
AcDbPoint
 10
1247.484813
 20
4.033501
 30
0.0
  0
ENDBLK
  5
5E0
330
5DE
100
AcDbEntity
  8
0
100
AcDbBlockEnd
  0
BLOCK
  5
5F0
330
5EF
100
AcDbEntity
  8
0
100
AcDbBlockBegin
  2
*D50
 70
     1
 10
0.0
 20
0.0
 30
0.0
  3
*D50
  1
*D50
  0
LINE
  5
5F2
330
5EF
100
AcDbEntity
  8
0
 62
     5
370
    -2
100
AcDbLine
 10
11260.792042
 20
-32.370173
 30
0.0
 11
10975.632039
 21
-32.370173
 31
0.0
  0
LINE
  5
5F3
330
5EF
100
AcDbEntity
  8
0
 62
     0
370
    -2
100
AcDbLine
 10
5933.558148
 20
4.075861
 30
0.0
 11
11385.91373
 21
7.713027
 31
0.0
  0
LINE
  5
5F4
330
5EF
100
AcDbEntity
  8
0
 62
     0
370
    -2
100
AcDbLine
 10
5933.558162
 20
4.033501
 30
0.0
 11
11385.914957
 21
4.033501
 31
0.0
  0
ARC
  5
5F5
330
5EF
100
AcDbEntity
  8
0
 62
     5
370
    -2
100
AcDbCircle
 10
5870.058162
 20
4.033501
 30
0.0
 40
5390.856795386574
100
AcDbArc
 50
359.613087
 51
0.038221
  0
ARC
  5
5F6
330
5EF
100
AcDbEntity
  8
0
 62
     5
370
    -2
100
AcDbCircle
 10
5870.058162
 20
4.033501
 30
0.0
 40
5390.856795386574
100
AcDbArc
 50
0.463355
 51
359.574866
  0
SOLID
  5
5F7
330
5EF
100
AcDbEntity
  8
0
 62
     5
100
AcDbTrace
 10
11254.072072
 20
47.600079
 30
0.0
 11
11267.405278
 21
47.65844
 31
0.0
 12
11260.913758
 22
7.629642
 32
0.0
 13
11260.913758
 23
7.629642
 33
0.0
  0
SOLID
  5
5F8
330
5EF
100
AcDbEntity
  8
0
 62
     5
100
AcDbTrace
 10
11267.433179
 20
-35.990957
 30
0.0
 11
11254.099937
 21
-35.941491
 31
0.0
 12
11260.914957
 22
4.033501
 32
0.0
 13
11260.914957
 23
4.033501
 33
0.0
  0
MTEXT
  5
5F9
330
5EF
100
AcDbEntity
  8
0
 62
     5
 48
100.0
100
AcDbMText
 10
11098.21204
 20
52.629827
 30
0.0
 40
40.000001
 41
0.0
 71
     5
 72
     1
  1
360%%d
 73
     1
 44
1.0
  0
POINT
  5
5FA
330
5EF
100
AcDbEntity
  8
Defpoints
 62
     0
100
AcDbPoint
 10
5870.058162
 20
4.033501
 30
0.0
  0
POINT
  5
5FB
330
5EF
100
AcDbEntity
  8
Defpoints
 62
     0
100
AcDbPoint
 10
5871.058162
 20
4.034169
 30
0.0
  0
POINT
  5
5FC
330
5EF
100
AcDbEntity
  8
Defpoints
 62
     0
100
AcDbPoint
 10
5871.058162
 20
4.033501
 30
0.0
  0
POINT
  5
5FD
330
5EF
100
AcDbEntity
  8
Defpoints
 62
     0
100
AcDbPoint
 10
3175.667947
 20
-4665.184673
 30
0.0
  0
ENDBLK
  5
5F1
330
5EF
100
AcDbEntity
  8
0
100
AcDbBlockEnd
  0
BLOCK
  5
603
330
602
100
AcDbEntity
  8
0
100
AcDbBlockBegin
  2
*D51
 70
     1
 10
0.0
 20
0.0
 30
0.0
  3
*D51
  1
*D51
  0
LINE
  5
605
330
602
100
AcDbEntity
  8
0
 62
     0
370
    -2
100
AcDbLine
 10
449.084813
 20
66.533501
 30
0.0
 11
449.084813
 21
129.033501
 31
0.0
  0
LINE
  5
606
330
602
100
AcDbEntity
  8
0
 62
     0
370
    -2
100
AcDbLine
 10
449.084813
 20
66.533501
 30
0.0
 11
449.084813
 21
129.033501
 31
0.0
  0
LINE
  5
607
330
602
100
AcDbEntity
  8
0
 62
     5
370
    -2
100
AcDbLine
 10
489.084813
 20
4.033501
 30
0.0
 11
683.644814
 21
4.033501
 31
0.0
  0
LINE
  5
608
330
602
100
AcDbEntity
  8
0
 62
     5
370
    -2
100
AcDbLine
 10
449.084813
 20
4.033501
 30
0.0
 11
449.084813
 21
4.033501
 31
0.0
  0
LINE
  5
609
330
602
100
AcDbEntity
  8
0
 62
     5
370
    -2
100
AcDbLine
 10
409.084812
 20
4.033501
 30
0.0
 11
369.084812
 21
4.033501
 31
0.0
  0
SOLID
  5
60A
330
602
100
AcDbEntity
  8
0
 62
     5
100
AcDbTrace
 10
409.084812
 20
-2.633165
 30
0.0
 11
409.084812
 21
10.700168
 31
0.0
 12
449.084813
 22
4.033501
 32
0.0
 13
449.084813
 23
4.033501
 33
0.0
  0
SOLID
  5
60B
330
602
100
AcDbEntity
  8
0
 62
     5
100
AcDbTrace
 10
489.084813
 20
10.700168
 30
0.0
 11
489.084813
 21
-2.633165
 31
0.0
 12
449.084813
 22
4.033501
 32
0.0
 13
449.084813
 23
4.033501
 33
0.0
  0
MTEXT
  5
60C
330
602
100
AcDbEntity
  8
0
 62
     5
 48
100.0
100
AcDbMText
 10
606.364814
 20
86.533502
 30
0.0
 40
40.000001
 41
0.0
 71
     5
 72
     1
  1
0
 73
     1
 44
1.0
  0
POINT
  5
60D
330
602
100
AcDbEntity
  8
Defpoints
 62
     0
100
AcDbPoint
 10
449.084813
 20
4.033501
 30
0.0
  0
POINT
  5
612
330
602
100
AcDbEntity
  8
Defpoints
 62
     0
100
AcDbPoint
 10
449.084813
 20
4.033501
 30
0.0
  0
POINT
  5
613
330
602
100
AcDbEntity
  8
Defpoints
 62
     0
100
AcDbPoint
 10
449.084813
 20
4.033501
 30
0.0
  0
ENDBLK
  5
604
330
602
100
AcDbEntity
  8
0
100
AcDbBlockEnd
  0
BLOCK
  5
741
330
740
100
AcDbEntity
  8
0
100
AcDbBlockBegin
  2
*D52
 70
     1
 10
0.0
 20
0.0
 30
0.0
  3
*D52
  1
*D52
  0
LINE
  5
743
330
740
100
AcDbEntity
  8
0
 62
     4
370
    -2
100
AcDbLine
 10
446.39362
 20
-59.391332
 30
0.0
 11
446.558124
 21
-201.891237
 31
0.0
  0
LINE
  5
744
330
740
100
AcDbEntity
  8
0
 62
     4
370
    -2
100
AcDbLine
 10
1247.556964
 20
-58.466457
 30
0.0
 11
1247.721468
 21
-200.966363
 31
0.0
  0
LINE
  5
745
330
740
100
AcDbEntity
  8
0
 62
     5
370
    -2
100
AcDbLine
 10
486.413796
 20
-76.845143
 30
0.0
 11
735.295493
 21
-76.557831
 31
0.0
  0
LINE
  5
746
330
740
100
AcDbEntity
  8
0
 62
     5
370
    -2
100
AcDbLine
 10
1207.577192
 20
-76.012623
 30
0.0
 11
958.695495
 21
-76.299935
 31
0.0
  0
SOLID
  5
747
330
740
100
AcDbEntity
  8
0
 62
     5
100
AcDbTrace
 10
486.4061
 20
-70.178481
 30
0.0
 11
486.421492
 21
-83.511806
 31
0.0
 12
446.413822
 22
-76.89132
 32
0.0
 13
446.413822
 23
-76.89132
 33
0.0
  0
SOLID
  5
748
330
740
100
AcDbEntity
  8
0
 62
     5
100
AcDbTrace
 10
1207.584888
 20
-82.679285
 30
0.0
 11
1207.569496
 21
-69.34596
 31
0.0
 12
1247.577166
 22
-75.966446
 32
0.0
 13
1247.577166
 23
-75.966446
 33
0.0
  0
MTEXT
  5
749
330
740
100
AcDbEntity
  8
0
 62
     5
 48
100.0
100
AcDbMText
 10
846.995494
 20
-76.428883
 30
0.0
 40
40.000001
 41
0.0
 71
     5
 72
     1
  1
800
 73
     1
 44
1.0
  0
POINT
  5
74A
330
740
100
AcDbEntity
  8
Defpoints
 62
     0
100
AcDbPoint
 10
446.321469
 20
3.108626
 30
0.0
  0
POINT
  5
74B
330
740
100
AcDbEntity
  8
Defpoints
 62
     0
100
AcDbPoint
 10
1247.484813
 20
4.033501
 30
0.0
  0
POINT
  5
74C
330
740
100
AcDbEntity
  8
Defpoints
 62
     0
100
AcDbPoint
 10
1247.577166
 20
-75.966446
 30
0.0
  0
ENDBLK
  5
742
330
740
100
AcDbEntity
  8
0
100
AcDbBlockEnd
  0
BLOCK
  5
751
330
750
100
AcDbEntity
  8
0
100
AcDbBlockBegin
  2
*D53
 70
     1
 10
0.0
 20
0.0
 30
0.0
  3
*D53
  1
*D53
  0
LINE
  5
753
330
750
100
AcDbEntity
  8
0
 62
     0
370
    -2
100
AcDbLine
 10
233.216164
 20
0.105853
 30
0.0
 11
10.716161
 21
0.105853
 31
0.0
  0
LINE
  5
754
330
750
100
AcDbEntity
  8
0
 62
     0
370
    -2
100
AcDbLine
 10
233.216164
 20
500.105853
 30
0.0
 11
10.716161
 21
500.105853
 31
0.0
  0
LINE
  5
755
330
750
100
AcDbEntity
  8
0
 62
     5
370
    -2
100
AcDbLine
 10
135.716161
 20
40.105854
 30
0.0
 11
135.716161
 21
167.025853
 31
0.0
  0
LINE
  5
756
330
750
100
AcDbEntity
  8
0
 62
     5
370
    -2
100
AcDbLine
 10
135.716161
 20
460.105852
 30
0.0
 11
135.716161
 21
333.185853
 31
0.0
  0
SOLID
  5
757
330
750
100
AcDbEntity
  8
0
 62
     5
100
AcDbTrace
 10
129.049494
 20
40.105854
 30
0.0
 11
142.382828
 21
40.105854
 31
0.0
 12
135.716161
 22
0.105853
 32
0.0
 13
135.716161
 23
0.105853
 33
0.0
  0
SOLID
  5
758
330
750
100
AcDbEntity
  8
0
 62
     5
100
AcDbTrace
 10
142.382828
 20
460.105852
 30
0.0
 11
129.049494
 21
460.105852
 31
0.0
 12
135.716161
 22
500.105853
 32
0.0
 13
135.716161
 23
500.105853
 33
0.0
  0
MTEXT
  5
759
330
750
100
AcDbEntity
  8
0
 62
     5
 48
100.0
100
AcDbMText
 10
135.716161
 20
250.105853
 30
0.0
 40
40.000001
 41
0.0
 71
     5
 72
     1
  1
500
 73
     1
 44
1.0
  0
POINT
  5
75A
330
750
100
AcDbEntity
  8
Defpoints
 62
     0
100
AcDbPoint
 10
295.716164
 20
0.105853
 30
0.0
  0
POINT
  5
75B
330
750
100
AcDbEntity
  8
Defpoints
 62
     0
100
AcDbPoint
 10
295.716164
 20
500.105853
 30
0.0
  0
POINT
  5
75C
330
750
100
AcDbEntity
  8
Defpoints
 62
     0
100
AcDbPoint
 10
135.716161
 20
500.105853
 30
0.0
  0
ENDBLK
  5
752
330
750
100
AcDbEntity
  8
0
100
AcDbBlockEnd
  0
BLOCK
  5
761
330
760
100
AcDbEntity
  8
0
100
AcDbBlockBegin
  2
*D54
 70
     1
 10
0.0
 20
0.0
 30
0.0
  3
*D54
  1
*D54
  0
LINE
  5
763
330
760
100
AcDbEntity
  8
0
 62
     0
370
    -2
100
AcDbLine
 10
295.716164
 20
63.605853
 30
0.0
 11
295.716164
 21
390.670191
 31
0.0
  0
LINE
  5
764
330
760
100
AcDbEntity
  8
0
 62
     0
370
    -2
100
AcDbLine
 10
344.498215
 20
-40.545856
 30
0.0
 11
595.755999
 21
-249.927343
 31
0.0
  0
ARC
  5
765
330
760
100
AcDbEntity
  8
0
 62
     5
370
    -2
100
AcDbCircle
 10
295.716164
 20
0.105853
 30
0.0
 40
265.5643379547232
100
AcDbArc
 50
98.63822
 51
185.974296
  0
ARC
  5
766
330
760
100
AcDbEntity
  8
0
 62
     5
370
    -2
100
AcDbCircle
 10
295.716164
 20
0.105853
 30
0.0
 40
265.5643379547232
100
AcDbArc
 50
228.092875
 51
311.556209
  0
SOLID
  5
767
330
760
100
AcDbEntity
  8
0
 62
     5
100
AcDbTrace
 10
256.331836
 20
256.010004
 30
0.0
 11
255.327685
 21
269.305472
 31
0.0
 12
295.716164
 22
265.670191
 32
0.0
 13
295.716164
 23
265.670191
 33
0.0
  0
SOLID
  5
768
330
760
100
AcDbEntity
  8
0
 62
     5
100
AcDbTrace
 10
476.664965
 20
-203.258833
 30
0.0
 11
467.093946
 21
-193.975871
 31
0.0
 12
499.728339
 22
-169.904293
 32
0.0
 13
499.728339
 23
-169.904293
 33
0.0
  0
MTEXT
  5
769
330
760
100
AcDbEntity
  8
0
 62
     5
 48
100.0
100
AcDbMText
 10
55.223908
 20
-112.534694
 30
0.0
 40
40.000001
 41
0.0
 71
     5
 72
     1
  1
230%%d
 73
     1
 44
1.0
  0
POINT
  5
76A
330
760
100
AcDbEntity
  8
Defpoints
 62
     0
100
AcDbPoint
 10
295.716164
 20
0.105853
 30
0.0
  0
POINT
  5
76B
330
760
100
AcDbEntity
  8
Defpoints
 62
     0
100
AcDbPoint
 10
295.716164
 20
1.105853
 30
0.0
  0
POINT
  5
76C
330
760
100
AcDbEntity
  8
Defpoints
 62
     0
100
AcDbPoint
 10
296.484385
 20
-0.534331
 30
0.0
  0
POINT
  5
76D
330
760
100
AcDbEntity
  8
Defpoints
 62
     0
100
AcDbPoint
 10
37.241037
 20
61.056871
 30
0.0
  0
ENDBLK
  5
762
330
760
100
AcDbEntity
  8
0
100
AcDbBlockEnd
  0
BLOCK
  5
774
330
773
100
AcDbEntity
  8
0
100
AcDbBlockBegin
  2
*D55
 70
     1
 10
0.0
 20
0.0
 30
0.0
  3
*D55
  1
*D55
  0
LINE
  5
776
330
773
100
AcDbEntity
  8
0
 62
     4
 48
100.0
370
    -2
100
AcDbLine
 10
8.216164
 20
247.605853
 30
0.0
 11
-233.762288
 21
247.605853
 31
0.0
  0
LINE
  5
777
330
773
100
AcDbEntity
  8
0
 62
     4
 48
100.0
370
    -2
100
AcDbLine
 10
8.216164
 20
747.605853
 30
0.0
 11
-233.762288
 21
747.605853
 31
0.0
  0
LINE
  5
778
330
773
100
AcDbEntity
  8
0
 62
     5
 48
100.0
370
    -2
100
AcDbLine
 10
-108.762288
 20
287.605854
 30
0.0
 11
-108.762288
 21
414.525853
 31
0.0
  0
LINE
  5
779
330
773
100
AcDbEntity
  8
0
 62
     5
 48
100.0
370
    -2
100
AcDbLine
 10
-108.762288
 20
707.605852
 30
0.0
 11
-108.762288
 21
580.685853
 31
0.0
  0
SOLID
  5
77A
330
773
100
AcDbEntity
  8
0
 62
     5
100
AcDbTrace
 10
-115.428955
 20
287.605854
 30
0.0
 11
-102.095621
 21
287.605854
 31
0.0
 12
-108.762288
 22
247.605853
 32
0.0
 13
-108.762288
 23
247.605853
 33
0.0
  0
SOLID
  5
77B
330
773
100
AcDbEntity
  8
0
 62
     5
100
AcDbTrace
 10
-102.095621
 20
707.605852
 30
0.0
 11
-115.428955
 21
707.605852
 31
0.0
 12
-108.762288
 22
747.605853
 32
0.0
 13
-108.762288
 23
747.605853
 33
0.0
  0
MTEXT
  5
77C
330
773
100
AcDbEntity
  8
0
 62
     5
 48
100.0
100
AcDbMText
 10
-108.762288
 20
497.605853
 30
0.0
 40
40.000001
 41
0.0
 71
     5
 72
     1
  1
500
 73
     1
 44
1.0
  0
POINT
  5
77D
330
773
100
AcDbEntity
  8
Defpoints
 62
     0
100
AcDbPoint
 10
70.716164
 20
247.605853
 30
0.0
  0
POINT
  5
77E
330
773
100
AcDbEntity
  8
Defpoints
 62
     0
100
AcDbPoint
 10
70.716164
 20
747.605853
 30
0.0
  0
POINT
  5
77F
330
773
100
AcDbEntity
  8
Defpoints
 62
     0
100
AcDbPoint
 10
-108.762288
 20
747.605853
 30
0.0
  0
ENDBLK
  5
775
330
773
100
AcDbEntity
  8
0
100
AcDbBlockEnd
  0
BLOCK
  5
785
330
784
100
AcDbEntity
  8
0
100
AcDbBlockBegin
  2
*D56
 70
     1
 10
0.0
 20
0.0
 30
0.0
  3
*D56
  1
*D56
  0
LINE
  5
787
330
784
100
AcDbEntity
  8
0
 62
     0
370
    -2
100
AcDbLine
 10
335.431725
 20
451.79606
 30
0.0
 11
375.44325
 21
403.78223
 31
0.0
  0
LINE
  5
788
330
784
100
AcDbEntity
  8
0
 62
     0
370
    -2
100
AcDbLine
 10
35.431725
 20
201.79606
 30
0.0
 11
75.44325
 21
153.78223
 31
0.0
  0
LINE
  5
789
330
784
100
AcDbEntity
  8
0
 62
     5
370
    -2
100
AcDbLine
 10
295.4202
 20
499.80989
 30
0.0
 11
250.492201
 21
462.36989
 31
0.0
  0
LINE
  5
78A
330
784
100
AcDbEntity
  8
0
 62
     5
370
    -2
100
AcDbLine
 10
-4.5798
 20
249.80989
 30
0.0
 11
40.3482
 21
287.249889
 31
0.0
  0
LINE
  5
78B
330
784
100
AcDbEntity
  8
0
 62
     5
370
    -2
100
AcDbLine
 10
326.149052
 20
525.417266
 30
0.0
 11
356.877903
 21
551.024642
 31
0.0
  0
LINE
  5
78C
330
784
100
AcDbEntity
  8
0
 62
     5
370
    -2
100
AcDbLine
 10
-35.308651
 20
224.202513
 30
0.0
 11
-66.037503
 21
198.595137
 31
0.0
  0
SOLID
  5
78D
330
784
100
AcDbEntity
  8
0
 62
     5
100
AcDbTrace
 10
321.881156
 20
530.538741
 30
0.0
 11
330.416948
 21
520.295791
 31
0.0
 12
295.4202
 22
499.80989
 32
0.0
 13
295.4202
 23
499.80989
 33
0.0
  0
SOLID
  5
78E
330
784
100
AcDbEntity
  8
0
 62
     5
100
AcDbTrace
 10
-31.040755
 20
219.081038
 30
0.0
 11
-39.576548
 21
229.323988
 31
0.0
 12
-4.5798
 22
249.80989
 32
0.0
 13
-4.5798
 23
249.80989
 33
0.0
  0
MTEXT
  5
78F
330
784
100
AcDbEntity
  8
0
 62
     5
 48
100.0
100
AcDbMText
 10
145.4202
 20
374.80989
 30
0.0
 40
40.000001
 41
0.0
 71
     5
 72
     1
  1
390,51
 73
     1
 44
1.0
  0
POINT
  5
790
330
784
100
AcDbEntity
  8
Defpoints
 62
     0
100
AcDbPoint
 10
295.4202
 20
499.80989
 30
0.0
  0
POINT
  5
791
330
784
100
AcDbEntity
  8
Defpoints
 62
     0
100
AcDbPoint
 10
-4.5798
 20
249.80989
 30
0.0
  0
POINT
  5
792
330
784
100
AcDbEntity
  8
Defpoints
 62
     0
100
AcDbPoint
 10
-4.5798
 20
249.80989
 30
0.0
  0
ENDBLK
  5
786
330
784
100
AcDbEntity
  8
0
100
AcDbBlockEnd
  0
BLOCK
  5
797
330
796
100
AcDbEntity
  8
0
100
AcDbBlockBegin
  2
*D57
 70
     1
 10
0.0
 20
0.0
 30
0.0
  3
*D57
  1
*D57
  0
LINE
  5
799
330
796
100
AcDbEntity
  8
0
 62
     5
370
    -2
100
AcDbLine
 10
-9.51249
 20
245.699062
 30
0.0
 11
-285.392492
 21
245.699062
 31
0.0
  0
LINE
  5
79A
330
796
100
AcDbEntity
  8
0
 62
     0
370
    -2
100
AcDbLine
 10
-53.036291
 20
209.42948
 30
0.0
 11
-105.540274
 21
165.676161
 31
0.0
  0
LINE
  5
79B
330
796
100
AcDbEntity
  8
0
 62
     0
370
    -2
100
AcDbLine
 10
44.527811
 20
209.42948
 30
0.0
 11
97.031794
 21
165.676161
 31
0.0
  0
ARC
  5
79C
330
796
100
AcDbEntity
  8
0
 62
     5
370
    -2
100
AcDbCircle
 10
-4.25424
 20
250.081189
 30
0.0
 40
6.844869062861073
100
AcDbArc
 50
219.807192
 51
39.806381
  0
ARC
  5
79D
330
796
100
AcDbEntity
  8
0
 62
     5
370
    -2
100
AcDbCircle
 10
-4.25424
 20
250.081189
 30
0.0
 40
6.844869062861073
100
AcDbArc
 50
140.193619
 51
320.192808
  0
ARC
  5
79E
330
796
100
AcDbEntity
  8
0
 62
     5
370
    -2
100
AcDbCircle
 10
-4.25424
 20
250.081189
 30
0.0
 40
6.844869062861073
100
AcDbArc
 50
219.805571
 51
320.194429
  0
SOLID
  5
79F
330
796
100
AcDbEntity
  8
0
 62
     5
100
AcDbTrace
 10
16.948124
 20
276.42825
 30
0.0
 11
25.483989
 21
266.185359
 31
0.0
 12
-9.512614
 22
245.699211
 32
0.0
 13
-9.512614
 23
245.699211
 33
0.0
  0
SOLID
  5
7A0
330
796
100
AcDbEntity
  8
0
 62
     5
100
AcDbTrace
 10
-33.992469
 20
266.185359
 30
0.0
 11
-25.456604
 21
276.42825
 31
0.0
 12
1.004134
 22
245.699211
 32
0.0
 13
1.004134
 23
245.699211
 33
0.0
  0
MTEXT
  5
7A1
330
796
100
AcDbEntity
  8
0
 62
     5
 48
100.0
100
AcDbMText
 10
-167.452492
 20
330.119063
 30
0.0
 40
40.000001
 41
0.0
 71
     5
 72
     1
  1
100%%d
 73
     1
 44
1.0
  0
POINT
  5
7A2
330
796
100
AcDbEntity
  8
Defpoints
 62
     0
100
AcDbPoint
 10
-4.25424
 20
250.081189
 30
0.0
  0
POINT
  5
7A3
330
796
100
AcDbEntity
  8
Defpoints
 62
     0
100
AcDbPoint
 10
-5.022461
 20
249.441005
 30
0.0
  0
POINT
  5
7A4
330
796
100
AcDbEntity
  8
Defpoints
 62
     0
100
AcDbPoint
 10
-3.486019
 20
249.441005
 30
0.0
  0
POINT
  5
7A5
330
796
100
AcDbEntity
  8
Defpoints
 62
     0
100
AcDbPoint
 10
-2.283694
 20
243.526101
 30
0.0
  0
ENDBLK
  5
798
330
796
100
AcDbEntity
  8
0
100
AcDbBlockEnd
  0
BLOCK
  5
7AA
330
7A9
100
AcDbEntity
  8
0
100
AcDbBlockBegin
  2
*D58
 70
     1
 10
0.0
 20
0.0
 30
0.0
  3
*D58
  1
*D58
  0
LINE
  5
7AC
330
7A9
100
AcDbEntity
  8
0
 62
     4
370
    -2
100
AcDbLine
 10
295.4202
 20
15.883641
 30
0.0
 11
295.4202
 21
-296.616359
 31
0.0
  0
LINE
  5
7AD
330
7A9
100
AcDbEntity
  8
0
 62
     4
370
    -2
100
AcDbLine
 10
-4.5798
 20
-234.116359
 30
0.0
 11
-4.5798
 21
-296.616359
 31
0.0
  0
LINE
  5
7AE
330
7A9
100
AcDbEntity
  8
0
 62
     5
370
    -2
100
AcDbLine
 10
255.420199
 20
-171.616359
 30
0.0
 11
35.420201
 21
-171.616359
 31
0.0
  0
SOLID
  5
7AF
330
7A9
100
AcDbEntity
  8
0
 62
     5
100
AcDbTrace
 10
255.420199
 20
-178.283026
 30
0.0
 11
255.420199
 21
-164.949692
 31
0.0
 12
295.4202
 22
-171.616359
 32
0.0
 13
295.4202
 23
-171.616359
 33
0.0
  0
SOLID
  5
7B0
330
7A9
100
AcDbEntity
  8
0
 62
     5
100
AcDbTrace
 10
35.420201
 20
-164.949692
 30
0.0
 11
35.420201
 21
-178.283026
 31
0.0
 12
-4.5798
 22
-171.616359
 32
0.0
 13
-4.5798
 23
-171.616359
 33
0.0
  0
MTEXT
  5
7B1
330
7A9
100
AcDbEntity
  8
0
 62
     5
 48
100.0
100
AcDbMText
 10
145.4202
 20
-88.536359
 30
0.0
 40
40.000001
 41
0.0
 71
     5
 72
     1
  1
300
 73
     1
 44
1.0
  0
POINT
  5
7B2
330
7A9
100
AcDbEntity
  8
Defpoints
 62
     0
100
AcDbPoint
 10
295.4202
 20
78.383641
 30
0.0
  0
POINT
  5
7B3
330
7A9
100
AcDbEntity
  8
Defpoints
 62
     0
100
AcDbPoint
 10
-4.5798
 20
-171.616359
 30
0.0
  0
POINT
  5
7B4
330
7A9
100
AcDbEntity
  8
Defpoints
 62
     0
100
AcDbPoint
 10
-4.5798
 20
-171.616359
 30
0.0
  0
ENDBLK
  5
7AB
330
7A9
100
AcDbEntity
  8
0
100
AcDbBlockEnd
  0
BLOCK
  5
7BE
330
7BD
100
AcDbEntity
  8
0
100
AcDbBlockBegin
  2
*D59
 70
     1
 10
0.0
 20
0.0
 30
0.0
  3
*D59
  1
*D59
  0
LINE
  5
7C0
330
7BD
100
AcDbEntity
  8
0
 62
     0
370
    -2
100
AcDbLine
 10
909.617025
 20
403.312438
 30
0.0
 11
1052.117026
 21
403.312438
 31
0.0
  0
LINE
  5
7C1
330
7BD
100
AcDbEntity
  8
0
 62
     0
370
    -2
100
AcDbLine
 10
908.899365
 20
503.15597
 30
0.0
 11
1052.117026
 21
503.15597
 31
0.0
  0
LINE
  5
7C2
330
7BD
100
AcDbEntity
  8
0
 62
     5
370
    -2
100
AcDbLine
 10
927.117026
 20
583.155971
 30
0.0
 11
1141.297028
 21
583.155971
 31
0.0
  0
LINE
  5
7C3
330
7BD
100
AcDbEntity
  8
0
 62
     5
370
    -2
100
AcDbLine
 10
927.117026
 20
403.312438
 30
0.0
 11
927.117026
 21
503.15597
 31
0.0
  0
LINE
  5
7C4
330
7BD
100
AcDbEntity
  8
0
 62
     5
370
    -2
100
AcDbLine
 10
927.117026
 20
363.312437
 30
0.0
 11
927.117026
 21
323.312437
 31
0.0
  0
LINE
  5
7C5
330
7BD
100
AcDbEntity
  8
0
 62
     5
370
    -2
100
AcDbLine
 10
927.117026
 20
543.155971
 30
0.0
 11
927.117026
 21
583.155971
 31
0.0
  0
SOLID
  5
7C6
330
7BD
100
AcDbEntity
  8
0
 62
     5
100
AcDbTrace
 10
933.783693
 20
363.312437
 30
0.0
 11
920.450359
 21
363.312437
 31
0.0
 12
927.117026
 22
403.312438
 32
0.0
 13
927.117026
 23
403.312438
 33
0.0
  0
SOLID
  5
7C7
330
7BD
100
AcDbEntity
  8
0
 62
     5
100
AcDbTrace
 10
920.450359
 20
543.155971
 30
0.0
 11
933.783693
 21
543.155971
 31
0.0
 12
927.117026
 22
503.15597
 32
0.0
 13
927.117026
 23
503.15597
 33
0.0
  0
MTEXT
  5
7C8
330
7BD
100
AcDbEntity
  8
0
 62
     5
 48
100.0
100
AcDbMText
 10
1065.457027
 20
670.715972
 30
0.0
 40
40.000001
 41
0.0
 71
     5
 72
     1
  1
99,84
 73
     1
 44
1.0
  0
POINT
  5
7CE
330
7BD
100
AcDbEntity
  8
Defpoints
 62
     0
100
AcDbPoint
 10
847.117025
 20
403.312438
 30
0.0
  0
POINT
  5
7CF
330
7BD
100
AcDbEntity
  8
Defpoints
 62
     0
100
AcDbPoint
 10
846.399365
 20
503.15597
 30
0.0
  0
POINT
  5
7D0
330
7BD
100
AcDbEntity
  8
Defpoints
 62
     0
100
AcDbPoint
 10
927.117026
 20
503.15597
 30
0.0
  0
ENDBLK
  5
7BF
330
7BD
100
AcDbEntity
  8
0
100
AcDbBlockEnd
  0
BLOCK
  5
7D3
330
7D2
100
AcDbEntity
  8
0
100
AcDbBlockBegin
  2
*D60
 70
     1
 10
0.0
 20
0.0
 30
0.0
  3
*D60
  1
*D60
  0
LINE
  5
7D5
330
7D2
100
AcDbEntity
  8
0
 62
     5
370
    -2
100
AcDbLine
 10
802.283017
 20
540.69621
 30
0.0
 11
517.203015
 21
540.69621
 31
0.0
  0
LINE
  5
7D6
330
7D2
100
AcDbEntity
  8
0
 62
     0
370
    -2
100
AcDbLine
 10
782.899365
 20
503.15597
 30
0.0
 11
663.472499
 21
503.15597
 31
0.0
  0
LINE
  5
7D7
330
7D2
100
AcDbEntity
  8
0
 62
     0
370
    -2
100
AcDbLine
 10
846.399365
 20
566.65597
 30
0.0
 11
846.399365
 21
686.082835
 31
0.0
  0
ARC
  5
7D8
330
7D2
100
AcDbEntity
  8
0
 62
     5
370
    -2
100
AcDbCircle
 10
846.399365
 20
503.15597
 30
0.0
 40
57.92686519766949
100
AcDbArc
 50
139.604304
 51
180.0
  0
ARC
  5
7D9
330
7D2
100
AcDbEntity
  8
0
 62
     5
370
    -2
100
AcDbCircle
 10
846.399365
 20
503.15597
 30
0.0
 40
57.92686519766949
100
AcDbArc
 50
220.395696
 51
49.604304
  0
SOLID
  5
7DA
330
7D2
100
AcDbEntity
  8
0
 62
     5
100
AcDbTrace
 10
808.539724
 20
467.917483
 30
0.0
 11
796.026311
 21
463.313977
 31
0.0
 12
788.472499
 22
503.15597
 32
0.0
 13
788.472499
 23
503.15597
 33
0.0
  0
SOLID
  5
7DB
330
7D2
100
AcDbEntity
  8
0
 62
     5
100
AcDbTrace
 10
886.241358
 20
553.529024
 30
0.0
 11
881.637852
 21
541.015611
 31
0.0
 12
846.399365
 22
561.082835
 32
0.0
 13
846.399365
 23
561.082835
 33
0.0
  0
MTEXT
  5
7DC
330
7D2
100
AcDbEntity
  8
0
 62
     5
 48
100.0
100
AcDbMText
 10
639.743016
 20
625.116211
 30
0.0
 40
40.000001
 41
0.0
 71
     5
 72
     1
  1
270%%d
 73
     1
 44
1.0
  0
POINT
  5
7DD
330
7D2
100
AcDbEntity
  8
Defpoints
 62
     0
100
AcDbPoint
 10
846.399365
 20
503.15597
 30
0.0
  0
POINT
  5
7DE
330
7D2
100
AcDbEntity
  8
Defpoints
 62
     0
100
AcDbPoint
 10
845.399365
 20
503.15597
 30
0.0
  0
POINT
  5
7DF
330
7D2
100
AcDbEntity
  8
Defpoints
 62
     0
100
AcDbPoint
 10
846.399365
 20
504.15597
 30
0.0
  0
POINT
  5
7E0
330
7D2
100
AcDbEntity
  8
Defpoints
 62
     0
100
AcDbPoint
 10
904.32623
 20
503.15597
 30
0.0
  0
ENDBLK
  5
7D4
330
7D2
100
AcDbEntity
  8
0
100
AcDbBlockEnd
  0
BLOCK
  5
7E6
330
7E5
100
AcDbEntity
  8
0
100
AcDbBlockBegin
  2
*D61
 70
     1
 10
0.0
 20
0.0
 30
0.0
  3
*D61
  1
*D61
  0
LINE
  5
7E8
330
7E5
100
AcDbEntity
  8
0
 62
     0
370
    -2
100
AcDbLine
 10
662.25156
 20
565.65597
 30
0.0
 11
662.25156
 21
708.155971
 31
0.0
  0
LINE
  5
7E9
330
7E5
100
AcDbEntity
  8
0
 62
     0
370
    -2
100
AcDbLine
 10
662.25156
 20
565.65597
 30
0.0
 11
662.25156
 21
708.155971
 31
0.0
  0
LINE
  5
7EA
330
7E5
100
AcDbEntity
  8
0
 62
     5
370
    -2
100
AcDbLine
 10
622.251559
 20
583.155971
 30
0.0
 11
427.691558
 21
583.155971
 31
0.0
  0
LINE
  5
7EB
330
7E5
100
AcDbEntity
  8
0
 62
     5
370
    -2
100
AcDbLine
 10
662.25156
 20
583.155971
 30
0.0
 11
662.25156
 21
583.155971
 31
0.0
  0
LINE
  5
7EC
330
7E5
100
AcDbEntity
  8
0
 62
     5
370
    -2
100
AcDbLine
 10
702.25156
 20
583.155971
 30
0.0
 11
742.251561
 21
583.155971
 31
0.0
  0
SOLID
  5
7ED
330
7E5
100
AcDbEntity
  8
0
 62
     5
100
AcDbTrace
 10
702.25156
 20
589.822638
 30
0.0
 11
702.25156
 21
576.489305
 31
0.0
 12
662.25156
 22
583.155971
 32
0.0
 13
662.25156
 23
583.155971
 33
0.0
  0
SOLID
  5
7EE
330
7E5
100
AcDbEntity
  8
0
 62
     5
100
AcDbTrace
 10
622.251559
 20
576.489305
 30
0.0
 11
622.251559
 21
589.822638
 31
0.0
 12
662.25156
 22
583.155971
 32
0.0
 13
662.25156
 23
583.155971
 33
0.0
  0
MTEXT
  5
7EF
330
7E5
100
AcDbEntity
  8
0
 62
     5
 48
100.0
100
AcDbMText
 10
504.971558
 20
665.655972
 30
0.0
 40
40.000001
 41
0.0
 71
     5
 72
     1
  1
0
 73
     1
 44
1.0
  0
POINT
  5
7F0
330
7E5
100
AcDbEntity
  8
Defpoints
 62
     0
100
AcDbPoint
 10
662.25156
 20
503.15597
 30
0.0
  0
POINT
  5
7F5
330
7E5
100
AcDbEntity
  8
Defpoints
 62
     0
100
AcDbPoint
 10
662.25156
 20
503.15597
 30
0.0
  0
POINT
  5
7F6
330
7E5
100
AcDbEntity
  8
Defpoints
 62
     0
100
AcDbPoint
 10
662.25156
 20
583.155971
 30
0.0
  0
ENDBLK
  5
7E7
330
7E5
100
AcDbEntity
  8
0
100
AcDbBlockEnd
  0
BLOCK
  5
7F9
330
7F8
100
AcDbEntity
  8
0
100
AcDbBlockBegin
  2
*D62
 70
     1
 10
0.0
 20
0.0
 30
0.0
  3
*D62
  1
*D62
  0
LINE
  5
7FB
330
7F8
100
AcDbEntity
  8
0
 62
     4
370
    -2
100
AcDbLine
 10
846.399365
 20
565.65597
 30
0.0
 11
846.399365
 21
708.155971
 31
0.0
  0
LINE
  5
7FC
330
7F8
100
AcDbEntity
  8
0
 62
     4
370
    -2
100
AcDbLine
 10
446.399365
 20
565.65597
 30
0.0
 11
446.399365
 21
708.155971
 31
0.0
  0
LINE
  5
7FD
330
7F8
100
AcDbEntity
  8
0
 62
     5
370
    -2
100
AcDbLine
 10
806.399364
 20
583.155971
 30
0.0
 11
486.399366
 21
583.155971
 31
0.0
  0
SOLID
  5
7FE
330
7F8
100
AcDbEntity
  8
0
 62
     5
100
AcDbTrace
 10
806.399364
 20
576.489304
 30
0.0
 11
806.399364
 21
589.822638
 31
0.0
 12
846.399365
 22
583.155971
 32
0.0
 13
846.399365
 23
583.155971
 33
0.0
  0
SOLID
  5
7FF
330
7F8
100
AcDbEntity
  8
0
 62
     5
100
AcDbTrace
 10
486.399366
 20
589.822638
 30
0.0
 11
486.399366
 21
576.489304
 31
0.0
 12
446.399365
 22
583.155971
 32
0.0
 13
446.399365
 23
583.155971
 33
0.0
  0
MTEXT
  5
800
330
7F8
100
AcDbEntity
  8
0
 62
     5
 48
100.0
100
AcDbMText
 10
646.399365
 20
665.655971
 30
0.0
 40
40.000001
 41
0.0
 71
     5
 72
     1
  1
400
 73
     1
 44
1.0
  0
POINT
  5
801
330
7F8
100
AcDbEntity
  8
Defpoints
 62
     0
100
AcDbPoint
 10
846.399365
 20
503.15597
 30
0.0
  0
POINT
  5
802
330
7F8
100
AcDbEntity
  8
Defpoints
 62
     0
100
AcDbPoint
 10
446.399365
 20
503.15597
 30
0.0
  0
POINT
  5
803
330
7F8
100
AcDbEntity
  8
Defpoints
 62
     0
100
AcDbPoint
 10
446.399365
 20
583.155971
 30
0.0
  0
ENDBLK
  5
7FA
330
7F8
100
AcDbEntity
  8
0
100
AcDbBlockEnd
  0
BLOCK
  5
808
330
807
100
AcDbEntity
  8
0
100
AcDbBlockBegin
  2
*D63
 70
     1
 10
0.0
 20
0.0
 30
0.0
  3
*D63
  1
*D63
  0
LINE
  5
80A
330
807
100
AcDbEntity
  8
0
 62
     4
370
    -2
100
AcDbLine
 10
908.899365
 20
403.15597
 30
0.0
 11
1451.399372
 21
403.15597
 31
0.0
  0
LINE
  5
80B
330
807
100
AcDbEntity
  8
0
 62
     4
370
    -2
100
AcDbLine
 10
908.899365
 20
503.15597
 30
0.0
 11
1451.399372
 21
503.15597
 31
0.0
  0
LINE
  5
80C
330
807
100
AcDbEntity
  8
0
 62
     5
370
    -2
100
AcDbLine
 10
1326.399372
 20
583.155971
 30
0.0
 11
1476.299373
 21
583.155971
 31
0.0
  0
LINE
  5
80D
330
807
100
AcDbEntity
  8
0
 62
     5
370
    -2
100
AcDbLine
 10
1326.399372
 20
403.15597
 30
0.0
 11
1326.399372
 21
503.15597
 31
0.0
  0
LINE
  5
80E
330
807
100
AcDbEntity
  8
0
 62
     5
370
    -2
100
AcDbLine
 10
1326.399372
 20
363.155969
 30
0.0
 11
1326.399372
 21
323.155969
 31
0.0
  0
LINE
  5
80F
330
807
100
AcDbEntity
  8
0
 62
     5
370
    -2
100
AcDbLine
 10
1326.399372
 20
543.155971
 30
0.0
 11
1326.399372
 21
583.155971
 31
0.0
  0
SOLID
  5
810
330
807
100
AcDbEntity
  8
0
 62
     5
100
AcDbTrace
 10
1333.066039
 20
363.155969
 30
0.0
 11
1319.732705
 21
363.155969
 31
0.0
 12
1326.399372
 22
403.15597
 32
0.0
 13
1326.399372
 23
403.15597
 33
0.0
  0
SOLID
  5
811
330
807
100
AcDbEntity
  8
0
 62
     5
100
AcDbTrace
 10
1319.732705
 20
543.155971
 30
0.0
 11
1333.066039
 21
543.155971
 31
0.0
 12
1326.399372
 22
503.15597
 32
0.0
 13
1326.399372
 23
503.15597
 33
0.0
  0
MTEXT
  5
812
330
807
100
AcDbEntity
  8
0
 62
     5
 48
100.0
100
AcDbMText
 10
1432.599373
 20
665.655971
 30
0.0
 40
40.000001
 41
0.0
 71
     5
 72
     1
  1
100
 73
     1
 44
1.0
  0
POINT
  5
818
330
807
100
AcDbEntity
  8
Defpoints
 62
     0
100
AcDbPoint
 10
846.399365
 20
403.15597
 30
0.0
  0
POINT
  5
819
330
807
100
AcDbEntity
  8
Defpoints
 62
     0
100
AcDbPoint
 10
846.399365
 20
503.15597
 30
0.0
  0
POINT
  5
81A
330
807
100
AcDbEntity
  8
Defpoints
 62
     0
100
AcDbPoint
 10
1326.399372
 20
503.15597
 30
0.0
  0
ENDBLK
  5
809
330
807
100
AcDbEntity
  8
0
100
AcDbBlockEnd
  0
BLOCK
  5
81D
330
81C
100
AcDbEntity
  8
0
100
AcDbBlockBegin
  2
*D64
 70
     1
 10
0.0
 20
0.0
 30
0.0
  3
*D64
  1
*D64
  0
LINE
  5
81F
330
81C
100
AcDbEntity
  8
0
 62
     0
370
    -2
100
AcDbLine
 10
411.260449
 20
51.55951
 30
0.0
 11
376.591687
 21
-0.443634
 31
0.0
  0
LINE
  5
820
330
81C
100
AcDbEntity
  8
0
 62
     0
370
    -2
100
AcDbLine
 10
261.260449
 20
151.55951
 30
0.0
 11
226.591687
 21
99.556366
 31
0.0
  0
LINE
  5
821
330
81C
100
AcDbEntity
  8
0
 62
     5
370
    -2
100
AcDbLine
 10
229.365187
 20
247.938669
 30
0.0
 11
-8.054816
 21
247.938669
 31
0.0
  0
LINE
  5
822
330
81C
100
AcDbEntity
  8
0
 62
     5
370
    -2
100
AcDbLine
 10
445.929212
 20
103.562653
 30
0.0
 11
295.929212
 21
203.562653
 31
0.0
  0
LINE
  5
823
330
81C
100
AcDbEntity
  8
0
 62
     5
370
    -2
100
AcDbLine
 10
479.211224
 20
81.374645
 30
0.0
 11
512.493236
 21
59.186637
 31
0.0
  0
LINE
  5
824
330
81C
100
AcDbEntity
  8
0
 62
     5
370
    -2
100
AcDbLine
 10
262.647199
 20
225.750661
 30
0.0
 11
229.365187
 21
247.938669
 31
0.0
  0
SOLID
  5
825
330
81C
100
AcDbEntity
  8
0
 62
     5
100
AcDbTrace
 10
482.909225
 20
86.921647
 30
0.0
 11
475.513222
 21
75.827643
 31
0.0
 12
445.929212
 22
103.562653
 32
0.0
 13
445.929212
 23
103.562653
 33
0.0
  0
SOLID
  5
826
330
81C
100
AcDbEntity
  8
0
 62
     5
100
AcDbTrace
 10
258.949198
 20
220.203659
 30
0.0
 11
266.345201
 21
231.297663
 31
0.0
 12
295.929212
 22
203.562653
 32
0.0
 13
295.929212
 23
203.562653
 33
0.0
  0
MTEXT
  5
827
330
81C
100
AcDbEntity
  8
0
 62
     5
 48
100.0
100
AcDbMText
 10
79.405186
 20
335.49867
 30
0.0
 40
40.000001
 41
0.0
 71
     5
 72
     1
  1
180,28
 73
     1
 44
1.0
  0
POINT
  5
828
330
81C
100
AcDbEntity
  8
Defpoints
 62
     0
100
AcDbPoint
 10
445.929212
 20
103.562653
 30
0.0
  0
POINT
  5
829
330
81C
100
AcDbEntity
  8
Defpoints
 62
     0
100
AcDbPoint
 10
295.929212
 20
203.562653
 30
0.0
  0
POINT
  5
82A
330
81C
100
AcDbEntity
  8
Defpoints
 62
     0
100
AcDbPoint
 10
295.929212
 20
203.562653
 30
0.0
  0
ENDBLK
  5
81E
330
81C
100
AcDbEntity
  8
0
100
AcDbBlockEnd
  0
BLOCK
  5
82F
330
82E
100
AcDbEntity
  8
0
100
AcDbBlockBegin
  2
*D65
 70
     1
 10
0.0
 20
0.0
 30
0.0
  3
*D65
  1
*D65
  0
LINE
  5
831
330
82E
100
AcDbEntity
  8
0
 62
     5
370
    -2
100
AcDbLine
 10
285.370764
 20
255.030045
 30
0.0
 11
0.210762
 21
255.030045
 31
0.0
  0
LINE
  5
832
330
82E
100
AcDbEntity
  8
0
 62
     0
370
    -2
100
AcDbLine
 10
242.88097
 20
238.928147
 30
0.0
 11
148.145708
 21
302.084989
 31
0.0
  0
LINE
  5
833
330
82E
100
AcDbEntity
  8
0
 62
     0
370
    -2
100
AcDbLine
 10
295.716164
 20
267.204685
 30
0.0
 11
295.716164
 21
381.0623
 31
0.0
  0
ARC
  5
834
330
82E
100
AcDbEntity
  8
0
 62
     5
370
    -2
100
AcDbCircle
 10
295.716164
 20
203.704685
 30
0.0
 40
52.35761484277414
100
AcDbArc
 50
101.396129
 51
146.309932
  0
ARC
  5
835
330
82E
100
AcDbEntity
  8
0
 62
     5
370
    -2
100
AcDbCircle
 10
295.716164
 20
203.704685
 30
0.0
 40
52.35761484277414
100
AcDbArc
 50
191.223736
 51
45.086196
  0
SOLID
  5
836
330
82E
100
AcDbEntity
  8
0
 62
     5
100
AcDbTrace
 10
250.898859
 20
192.21508
 30
0.0
 11
237.820958
 21
194.812442
 31
0.0
 12
252.151995
 22
232.747464
 32
0.0
 13
252.151995
 23
232.747464
 33
0.0
  0
SOLID
  5
837
330
82E
100
AcDbEntity
  8
0
 62
     5
100
AcDbTrace
 10
335.229438
 20
246.943879
 30
0.0
 11
330.13626
 21
234.62165
 31
0.0
 12
295.716164
 22
256.0623
 32
0.0
 13
295.716164
 23
256.0623
 33
0.0
  0
MTEXT
  5
838
330
82E
100
AcDbEntity
  8
0
 62
     5
 48
100.0
100
AcDbMText
 10
122.790763
 20
340.030045
 30
0.0
 40
40.000001
 41
0.0
 71
     5
 72
     1
  1
304%%d
 73
     1
 44
1.0
  0
POINT
  5
839
330
82E
100
AcDbEntity
  8
Defpoints
 62
     0
100
AcDbPoint
 10
295.716164
 20
203.704685
 30
0.0
  0
POINT
  5
83A
330
82E
100
AcDbEntity
  8
Defpoints
 62
     0
100
AcDbPoint
 10
294.884113
 20
204.259385
 30
0.0
  0
POINT
  5
83B
330
82E
100
AcDbEntity
  8
Defpoints
 62
     0
100
AcDbPoint
 10
295.716164
 20
204.704685
 30
0.0
  0
POINT
  5
83C
330
82E
100
AcDbEntity
  8
Defpoints
 62
     0
100
AcDbPoint
 10
347.0713
 20
193.508127
 30
0.0
  0
ENDBLK
  5
830
330
82E
100
AcDbEntity
  8
0
100
AcDbBlockEnd
  0
BLOCK
  5
842
330
841
100
AcDbEntity
  8
0
100
AcDbBlockBegin
  2
*D66
 70
     1
 10
0.0
 20
0.0
 30
0.0
  3
*D66
  1
*D66
  0
LINE
  5
844
330
841
100
AcDbEntity
  8
0
 62
     0
370
    -2
100
AcDbLine
 10
411.260449
 20
51.55951
 30
0.0
 11
332.215671
 21
-67.007658
 31
0.0
  0
LINE
  5
845
330
841
100
AcDbEntity
  8
0
 62
     0
370
    -2
100
AcDbLine
 10
261.260449
 20
151.55951
 30
0.0
 11
182.215671
 21
32.992342
 31
0.0
  0
LINE
  5
846
330
841
100
AcDbEntity
  8
0
 62
     5
370
    -2
100
AcDbLine
 10
184.989171
 20
181.374645
 30
0.0
 11
-52.430832
 21
181.374645
 31
0.0
  0
LINE
  5
847
330
841
100
AcDbEntity
  8
0
 62
     5
370
    -2
100
AcDbLine
 10
401.553195
 20
36.998629
 30
0.0
 11
251.553195
 21
136.998629
 31
0.0
  0
LINE
  5
848
330
841
100
AcDbEntity
  8
0
 62
     5
370
    -2
100
AcDbLine
 10
434.835207
 20
14.81062
 30
0.0
 11
468.11722
 21
-7.377388
 31
0.0
  0
LINE
  5
849
330
841
100
AcDbEntity
  8
0
 62
     5
370
    -2
100
AcDbLine
 10
218.271183
 20
159.186637
 30
0.0
 11
184.989171
 21
181.374645
 31
0.0
  0
SOLID
  5
84A
330
841
100
AcDbEntity
  8
0
 62
     5
100
AcDbTrace
 10
438.533209
 20
20.357622
 30
0.0
 11
431.137206
 21
9.263618
 31
0.0
 12
401.553195
 22
36.998629
 32
0.0
 13
401.553195
 23
36.998629
 33
0.0
  0
SOLID
  5
84B
330
841
100
AcDbEntity
  8
0
 62
     5
100
AcDbTrace
 10
214.573182
 20
153.639635
 30
0.0
 11
221.969184
 21
164.733639
 31
0.0
 12
251.553195
 22
136.998629
 32
0.0
 13
251.553195
 23
136.998629
 33
0.0
  0
MTEXT
  5
84C
330
841
100
AcDbEntity
  8
0
 62
     5
 48
100.0
100
AcDbMText
 10
35.029169
 20
268.934645
 30
0.0
 40
40.000001
 41
0.0
 71
     5
 72
     1
  1
180,28
 73
     1
 44
1.0
  0
POINT
  5
84D
330
841
100
AcDbEntity
  8
Defpoints
 62
     0
100
AcDbPoint
 10
445.929212
 20
103.562653
 30
0.0
  0
POINT
  5
84E
330
841
100
AcDbEntity
  8
Defpoints
 62
     0
100
AcDbPoint
 10
295.929212
 20
203.562653
 30
0.0
  0
POINT
  5
851
330
841
100
AcDbEntity
  8
Defpoints
 62
     0
100
AcDbPoint
 10
251.553195
 20
136.998629
 30
0.0
  0
ENDBLK
  5
843
330
841
100
AcDbEntity
  8
0
100
AcDbBlockEnd
  0
BLOCK
  5
854
330
853
100
AcDbEntity
  8
0
100
AcDbBlockBegin
  2
*D67
 70
     1
 10
0.0
 20
0.0
 30
0.0
  3
*D67
  1
*D67
  0
LINE
  5
856
330
853
100
AcDbEntity
  8
0
 62
     5
370
    -2
100
AcDbLine
 10
193.370987
 20
319.604955
 30
0.0
 11
-91.789015
 21
319.604955
 31
0.0
  0
LINE
  5
857
330
853
100
AcDbEntity
  8
0
 62
     0
370
    -2
100
AcDbLine
 10
242.88097
 20
238.928147
 30
0.0
 11
63.05809
 21
358.810068
 31
0.0
  0
LINE
  5
858
330
853
100
AcDbEntity
  8
0
 62
     0
370
    -2
100
AcDbLine
 10
295.716164
 20
267.204685
 30
0.0
 11
295.716164
 21
483.32489
 31
0.0
  0
ARC
  5
859
330
853
100
AcDbEntity
  8
0
 62
     5
370
    -2
100
AcDbCircle
 10
295.716164
 20
203.704685
 30
0.0
 40
154.6202049528156
100
AcDbArc
 50
131.445959
 51
146.309932
  0
ARC
  5
85A
330
853
100
AcDbEntity
  8
0
 62
     5
370
    -2
100
AcDbCircle
 10
295.716164
 20
203.704685
 30
0.0
 40
154.6202049528156
100
AcDbArc
 50
161.173906
 51
75.136026
  0
SOLID
  5
85B
330
853
100
AcDbEntity
  8
0
 62
     5
100
AcDbTrace
 10
155.346505
 20
250.650694
 30
0.0
 11
143.389033
 21
256.549563
 31
0.0
 12
167.064377
 22
289.472543
 32
0.0
 13
167.064377
 23
289.472543
 33
0.0
  0
SOLID
  5
85C
330
853
100
AcDbEntity
  8
0
 62
     5
100
AcDbTrace
 10
336.242456
 20
359.761583
 30
0.0
 11
334.5178
 21
346.540261
 31
0.0
 12
295.716164
 22
358.32489
 32
0.0
 13
295.716164
 23
358.32489
 33
0.0
  0
MTEXT
  5
85D
330
853
100
AcDbEntity
  8
0
 62
     5
 48
100.0
100
AcDbMText
 10
30.790986
 20
404.604956
 30
0.0
 40
40.000001
 41
0.0
 71
     5
 72
     1
  1
304%%d
 73
     1
 44
1.0
  0
POINT
  5
85E
330
853
100
AcDbEntity
  8
Defpoints
 62
     0
100
AcDbPoint
 10
295.716164
 20
203.704685
 30
0.0
  0
POINT
  5
85F
330
853
100
AcDbEntity
  8
Defpoints
 62
     0
100
AcDbPoint
 10
294.884113
 20
204.259385
 30
0.0
  0
POINT
  5
860
330
853
100
AcDbEntity
  8
Defpoints
 62
     0
100
AcDbPoint
 10
295.716164
 20
204.704685
 30
0.0
  0
POINT
  5
861
330
853
100
AcDbEntity
  8
Defpoints
 62
     0
100
AcDbPoint
 10
447.375893
 20
173.592657
 30
0.0
  0
ENDBLK
  5
855
330
853
100
AcDbEntity
  8
0
100
AcDbBlockEnd
  0
BLOCK
  5
867
330
866
100
AcDbEntity
  8
0
100
AcDbBlockBegin
  2
*D68
 70
     1
 10
0.0
 20
0.0
 30
0.0
  3
*D68
  1
*D68
  0
LINE
  5
869
330
866
100
AcDbEntity
  8
0
 62
     0
370
    -2
100
AcDbLine
 10
411.260449
 20
51.55951
 30
0.0
 11
287.839654
 21
-133.571683
 31
0.0
  0
LINE
  5
86A
330
866
100
AcDbEntity
  8
0
 62
     0
370
    -2
100
AcDbLine
 10
261.260449
 20
151.55951
 30
0.0
 11
137.839654
 21
-33.571683
 31
0.0
  0
LINE
  5
86B
330
866
100
AcDbEntity
  8
0
 62
     5
370
    -2
100
AcDbLine
 10
140.613154
 20
114.81062
 30
0.0
 11
-96.806848
 21
114.81062
 31
0.0
  0
LINE
  5
86C
330
866
100
AcDbEntity
  8
0
 62
     5
370
    -2
100
AcDbLine
 10
357.177179
 20
-29.565396
 30
0.0
 11
207.177179
 21
70.434604
 31
0.0
  0
LINE
  5
86D
330
866
100
AcDbEntity
  8
0
 62
     5
370
    -2
100
AcDbLine
 10
390.459191
 20
-51.753404
 30
0.0
 11
423.741203
 21
-73.941412
 31
0.0
  0
LINE
  5
86E
330
866
100
AcDbEntity
  8
0
 62
     5
370
    -2
100
AcDbLine
 10
173.895167
 20
92.622612
 30
0.0
 11
140.613154
 21
114.81062
 31
0.0
  0
SOLID
  5
86F
330
866
100
AcDbEntity
  8
0
 62
     5
100
AcDbTrace
 10
394.157192
 20
-46.206402
 30
0.0
 11
386.76119
 21
-57.300406
 31
0.0
 12
357.177179
 22
-29.565396
 32
0.0
 13
357.177179
 23
-29.565396
 33
0.0
  0
SOLID
  5
870
330
866
100
AcDbEntity
  8
0
 62
     5
100
AcDbTrace
 10
170.197165
 20
87.07561
 30
0.0
 11
177.593168
 21
98.169614
 31
0.0
 12
207.177179
 22
70.434604
 32
0.0
 13
207.177179
 23
70.434604
 33
0.0
  0
MTEXT
  5
871
330
866
100
AcDbEntity
  8
0
 62
     5
 48
100.0
100
AcDbMText
 10
-9.346847
 20
202.370621
 30
0.0
 40
40.000001
 41
0.0
 71
     5
 72
     1
  1
180,28
 73
     1
 44
1.0
  0
POINT
  5
872
330
866
100
AcDbEntity
  8
Defpoints
 62
     0
100
AcDbPoint
 10
445.929212
 20
103.562653
 30
0.0
  0
POINT
  5
873
330
866
100
AcDbEntity
  8
Defpoints
 62
     0
100
AcDbPoint
 10
295.929212
 20
203.562653
 30
0.0
  0
POINT
  5
876
330
866
100
AcDbEntity
  8
Defpoints
 62
     0
100
AcDbPoint
 10
207.177179
 20
70.434604
 30
0.0
  0
ENDBLK
  5
868
330
866
100
AcDbEntity
  8
0
100
AcDbBlockEnd
  0
BLOCK
  5
879
330
878
100
AcDbEntity
  8
0
100
AcDbBlockBegin
  2
*D69
 70
     1
 10
0.0
 20
0.0
 30
0.0
  3
*D69
  1
*D69
  0
LINE
  5
87B
330
878
100
AcDbEntity
  8
0
 62
     0
370
    -2
100
AcDbLine
 10
296.077193
 20
139.963999
 30
0.0
 11
296.077193
 21
-106.397638
 31
0.0
  0
LINE
  5
87C
330
878
100
AcDbEntity
  8
0
 62
     0
370
    -2
100
AcDbLine
 10
243.242
 20
238.687461
 30
0.0
 11
38.256727
 21
375.344309
 31
0.0
  0
ARC
  5
87D
330
878
100
AcDbEntity
  8
0
 62
     5
370
    -2
100
AcDbCircle
 10
296.077193
 20
203.463999
 30
0.0
 40
184.8616367406604
100
AcDbArc
 50
282.421863
 51
0.690693
  0
ARC
  5
87E
330
878
100
AcDbEntity
  8
0
 62
     5
370
    -2
100
AcDbCircle
 10
296.077193
 20
203.463999
 30
0.0
 40
184.8616367406604
100
AcDbArc
 50
68.695277
 51
133.88807
  0
SOLID
  5
87F
330
878
100
AcDbEntity
  8
0
 62
     5
100
AcDbTrace
 10
335.121147
 20
29.557459
 30
0.0
 11
336.563668
 21
16.302387
 31
0.0
 12
296.077193
 22
18.602362
 32
0.0
 13
296.077193
 23
18.602362
 33
0.0
  0
SOLID
  5
880
330
878
100
AcDbEntity
  8
0
 62
     5
100
AcDbTrace
 10
162.807175
 20
340.969364
 30
0.0
 11
173.035894
 21
332.416524
 31
0.0
 12
142.263014
 22
306.006785
 32
0.0
 13
142.263014
 23
306.006785
 33
0.0
  0
MTEXT
  5
881
330
878
100
AcDbEntity
  8
0
 62
     5
 48
100.0
100
AcDbMText
 10
459.065003
 20
290.692427
 30
0.0
 40
40.000001
 41
0.0
 71
     5
 72
     1
  1
236%%d
 73
     1
 44
1.0
  0
POINT
  5
882
330
878
100
AcDbEntity
  8
Defpoints
 62
     0
100
AcDbPoint
 10
296.077193
 20
203.463999
 30
0.0
  0
POINT
  5
883
330
878
100
AcDbEntity
  8
Defpoints
 62
     0
100
AcDbPoint
 10
296.077193
 20
202.463999
 30
0.0
  0
POINT
  5
884
330
878
100
AcDbEntity
  8
Defpoints
 62
     0
100
AcDbPoint
 10
295.245143
 20
204.018699
 30
0.0
  0
POINT
  5
885
330
878
100
AcDbEntity
  8
Defpoints
 62
     0
100
AcDbPoint
 10
477.399329
 20
167.462502
 30
0.0
  0
ENDBLK
  5
87A
330
878
100
AcDbEntity
  8
0
100
AcDbBlockEnd
  0
BLOCK
  5
88C
330
88B
100
AcDbEntity
  8
0
100
AcDbBlockBegin
  2
*D70
 70
     1
 10
0.0
 20
0.0
 30
0.0
  3
*D70
  1
*D70
  0
LINE
  5
88E
330
88B
100
AcDbEntity
  8
0
 62
     0
370
    -2
100
AcDbLine
 10
411.260449
 20
51.55951
 30
0.0
 11
287.839654
 21
-133.571683
 31
0.0
  0
LINE
  5
88F
330
88B
100
AcDbEntity
  8
0
 62
     0
370
    -2
100
AcDbLine
 10
261.260449
 20
151.55951
 30
0.0
 11
137.839654
 21
-33.571683
 31
0.0
  0
LINE
  5
890
330
88B
100
AcDbEntity
  8
0
 62
     5
370
    -2
100
AcDbLine
 10
140.613154
 20
114.81062
 30
0.0
 11
-96.806848
 21
114.81062
 31
0.0
  0
LINE
  5
891
330
88B
100
AcDbEntity
  8
0
 62
     5
370
    -2
100
AcDbLine
 10
357.177179
 20
-29.565396
 30
0.0
 11
207.177179
 21
70.434604
 31
0.0
  0
LINE
  5
892
330
88B
100
AcDbEntity
  8
0
 62
     5
370
    -2
100
AcDbLine
 10
390.459191
 20
-51.753404
 30
0.0
 11
423.741203
 21
-73.941412
 31
0.0
  0
LINE
  5
893
330
88B
100
AcDbEntity
  8
0
 62
     5
370
    -2
100
AcDbLine
 10
173.895167
 20
92.622612
 30
0.0
 11
140.613154
 21
114.81062
 31
0.0
  0
SOLID
  5
894
330
88B
100
AcDbEntity
  8
0
 62
     5
100
AcDbTrace
 10
394.157192
 20
-46.206402
 30
0.0
 11
386.76119
 21
-57.300406
 31
0.0
 12
357.177179
 22
-29.565396
 32
0.0
 13
357.177179
 23
-29.565396
 33
0.0
  0
SOLID
  5
895
330
88B
100
AcDbEntity
  8
0
 62
     5
100
AcDbTrace
 10
170.197165
 20
87.07561
 30
0.0
 11
177.593168
 21
98.169614
 31
0.0
 12
207.177179
 22
70.434604
 32
0.0
 13
207.177179
 23
70.434604
 33
0.0
  0
MTEXT
  5
896
330
88B
100
AcDbEntity
  8
0
 62
     5
 48
100.0
100
AcDbMText
 10
-9.346847
 20
202.370621
 30
0.0
 40
40.000001
 41
0.0
 71
     5
 72
     1
  1
180,28
 73
     1
 44
1.0
  0
POINT
  5
897
330
88B
100
AcDbEntity
  8
Defpoints
 62
     0
100
AcDbPoint
 10
445.929212
 20
103.562653
 30
0.0
  0
POINT
  5
898
330
88B
100
AcDbEntity
  8
Defpoints
 62
     0
100
AcDbPoint
 10
295.929212
 20
203.562653
 30
0.0
  0
POINT
  5
89B
330
88B
100
AcDbEntity
  8
Defpoints
 62
     0
100
AcDbPoint
 10
207.177179
 20
70.434604
 30
0.0
  0
ENDBLK
  5
88D
330
88B
100
AcDbEntity
  8
0
100
AcDbBlockEnd
  0
BLOCK
  5
89E
330
89D
100
AcDbEntity
  8
0
100
AcDbBlockBegin
  2
*D71
 70
     1
 10
0.0
 20
0.0
 30
0.0
  3
*D71
  1
*D71
  0
LINE
  5
8A0
330
89D
100
AcDbEntity
  8
0
 62
     0
370
    -2
100
AcDbLine
 10
295.716164
 20
-62.394147
 30
0.0
 11
295.716164
 21
-213.592935
 31
0.0
  0
LINE
  5
8A1
330
89D
100
AcDbEntity
  8
0
 62
     0
370
    -2
100
AcDbLine
 10
497.932355
 20
68.893891
 30
0.0
 11
642.928771
 21
-27.770387
 31
0.0
  0
ARC
  5
8A2
330
89D
100
AcDbEntity
  8
0
 62
     5
370
    -2
100
AcDbCircle
 10
295.716164
 20
203.704685
 30
0.0
 40
292.2976200293984
100
AcDbArc
 50
254.306247
 51
262.153124
  0
ARC
  5
8A3
330
89D
100
AcDbEntity
  8
0
 62
     5
370
    -2
100
AcDbCircle
 10
295.716164
 20
203.704685
 30
0.0
 40
292.2976200293984
100
AcDbArc
 50
334.156809
 51
342.003685
  0
ARC
  5
8A4
330
89D
100
AcDbEntity
  8
0
 62
     5
370
    -2
100
AcDbCircle
 10
295.716164
 20
203.704685
 30
0.0
 40
292.2976200293984
100
AcDbArc
 50
270.0
 51
326.309932
  0
SOLID
  5
8A5
330
89D
100
AcDbEntity
  8
0
 62
     5
100
AcDbTrace
 10
255.353752
 20
-92.507041
 30
0.0
 11
256.266064
 21
-79.204956
 31
0.0
 12
295.716164
 22
-88.592935
 32
0.0
 13
295.716164
 23
-88.592935
 33
0.0
  0
SOLID
  5
8A6
330
89D
100
AcDbEntity
  8
0
 62
     5
100
AcDbTrace
 10
552.994191
 20
79.599118
 30
0.0
 11
564.568255
 21
72.979539
 31
0.0
 12
538.922484
 22
41.567138
 32
0.0
 13
538.922484
 23
41.567138
 33
0.0
  0
MTEXT
  5
8A7
330
89D
100
AcDbEntity
  8
0
 62
     5
 48
100.0
100
AcDbMText
 10
433.639112
 20
-54.006702
 30
0.0
 40
40.000001
 41
0.0
 71
     5
 72
     1
  1
56%%d
 73
     1
 44
1.0
  0
POINT
  5
8A8
330
89D
100
AcDbEntity
  8
Defpoints
 62
     0
100
AcDbPoint
 10
295.716164
 20
203.704685
 30
0.0
  0
POINT
  5
8A9
330
89D
100
AcDbEntity
  8
Defpoints
 62
     0
100
AcDbPoint
 10
295.716164
 20
0.105853
 30
0.0
  0
POINT
  5
8AF
330
89D
100
AcDbEntity
  8
Defpoints
 62
     0
100
AcDbPoint
 10
445.929212
 20
103.562653
 30
0.0
  0
POINT
  5
8B2
330
89D
100
AcDbEntity
  8
Defpoints
 62
     0
100
AcDbPoint
 10
389.768656
 20
-73.047961
 30
0.0
  0
ENDBLK
  5
89F
330
89D
100
AcDbEntity
  8
0
100
AcDbBlockEnd
  0
BLOCK
  5
8B5
330
8B4
100
AcDbEntity
  8
0
100
AcDbBlockBegin
  2
*D72
 70
     1
 10
0.0
 20
0.0
 30
0.0
  3
*D72
  1
*D72
  0
LINE
  5
8B7
330
8B4
100
AcDbEntity
  8
0
 62
     5
370
    -2
100
AcDbLine
 10
168.987364
 20
-59.691803
 30
0.0
 11
-70.932638
 21
-59.691803
 31
0.0
  0
LINE
  5
8B8
330
8B4
100
AcDbEntity
  8
0
 62
     0
370
    -2
100
AcDbLine
 10
244.959215
 20
-21.652277
 30
0.0
 11
244.959215
 21
40.847723
 31
0.0
  0
LINE
  5
8B9
330
8B4
100
AcDbEntity
  8
0
 62
     0
370
    -2
100
AcDbLine
 10
295.716164
 20
-26.092935
 30
0.0
 11
295.716164
 21
36.407065
 31
0.0
  0
ARC
  5
8BA
330
8B4
100
AcDbEntity
  8
0
 62
     5
370
    -2
100
AcDbCircle
 10
295.716164
 20
203.704685
 30
0.0
 40
292.2976200293984
100
AcDbArc
 50
244.306247
 51
252.153124
  0
ARC
  5
8BB
330
8B4
100
AcDbEntity
  8
0
 62
     5
370
    -2
100
AcDbCircle
 10
295.716164
 20
203.704685
 30
0.0
 40
292.2976200293984
100
AcDbArc
 50
277.846876
 51
285.693753
  0
ARC
  5
8BC
330
8B4
100
AcDbEntity
  8
0
 62
     5
370
    -2
100
AcDbCircle
 10
295.716164
 20
203.704685
 30
0.0
 40
292.2976200293984
100
AcDbArc
 50
260.0
 51
270.0
  0
SOLID
  5
8BD
330
8B4
100
AcDbEntity
  8
0
 62
     5
100
AcDbTrace
 10
204.530321
 20
-80.99806
 30
0.0
 11
207.738656
 21
-68.056485
 31
0.0
 12
244.959215
 22
-84.152277
 32
0.0
 13
244.959215
 23
-84.152277
 33
0.0
  0
SOLID
  5
8BE
330
8B4
100
AcDbEntity
  8
0
 62
     5
100
AcDbTrace
 10
335.166263
 20
-79.204956
 30
0.0
 11
336.078575
 21
-92.507041
 31
0.0
 12
295.716164
 22
-88.592935
 32
0.0
 13
295.716164
 23
-88.592935
 33
0.0
  0
MTEXT
  5
8BF
330
8B4
100
AcDbEntity
  8
0
 62
     5
 48
100.0
100
AcDbMText
 10
29.027363
 20
24.728197
 30
0.0
 40
40.000001
 41
0.0
 71
     5
 72
     1
  1
10%%d
 73
     1
 44
1.0
  0
POINT
  5
8C0
330
8B4
100
AcDbEntity
  8
Defpoints
 62
     0
100
AcDbPoint
 10
295.716164
 20
203.704685
 30
0.0
  0
POINT
  5
8C1
330
8B4
100
AcDbEntity
  8
Defpoints
 62
     0
100
AcDbPoint
 10
244.959215
 20
-84.152277
 30
0.0
  0
POINT
  5
8C2
330
8B4
100
AcDbEntity
  8
Defpoints
 62
     0
100
AcDbPoint
 10
295.716164
 20
-88.592935
 30
0.0
  0
POINT
  5
8C3
330
8B4
100
AcDbEntity
  8
Defpoints
 62
     0
100
AcDbPoint
 10
278.720568
 20
-88.098414
 30
0.0
  0
ENDBLK
  5
8B6
330
8B4
100
AcDbEntity
  8
0
100
AcDbBlockEnd
  0
BLOCK
  5
8C8
330
8C7
100
AcDbEntity
  8
0
100
AcDbBlockBegin
  2
*D73
 70
     1
 10
0.0
 20
0.0
 30
0.0
  3
*D73
  1
*D73
  0
LINE
  5
8CA
330
8C7
100
AcDbEntity
  8
0
 62
     0
370
    -2
100
AcDbLine
 10
446.308781
 20
65.590768
 30
0.0
 11
446.308781
 21
229.146192
 31
0.0
  0
LINE
  5
8CB
330
8C7
100
AcDbEntity
  8
0
 62
     0
370
    -2
100
AcDbLine
 10
446.447288
 20
166.646192
 30
0.0
 11
446.447288
 21
229.146192
 31
0.0
  0
LINE
  5
8CC
330
8C7
100
AcDbEntity
  8
0
 62
     5
370
    -2
100
AcDbLine
 10
486.447288
 20
104.146192
 30
0.0
 11
762.287291
 21
104.146192
 31
0.0
  0
LINE
  5
8CD
330
8C7
100
AcDbEntity
  8
0
 62
     5
370
    -2
100
AcDbLine
 10
446.308781
 20
104.146192
 30
0.0
 11
446.447288
 21
104.146192
 31
0.0
  0
LINE
  5
8CE
330
8C7
100
AcDbEntity
  8
0
 62
     5
370
    -2
100
AcDbLine
 10
406.30878
 20
104.146192
 30
0.0
 11
366.30878
 21
104.146192
 31
0.0
  0
SOLID
  5
8CF
330
8C7
100
AcDbEntity
  8
0
 62
     5
100
AcDbTrace
 10
406.30878
 20
97.479526
 30
0.0
 11
406.30878
 21
110.812859
 31
0.0
 12
446.308781
 22
104.146192
 32
0.0
 13
446.308781
 23
104.146192
 33
0.0
  0
SOLID
  5
8D0
330
8C7
100
AcDbEntity
  8
0
 62
     5
100
AcDbTrace
 10
486.447288
 20
110.812859
 30
0.0
 11
486.447288
 21
97.479526
 31
0.0
 12
446.447288
 22
104.146192
 32
0.0
 13
446.447288
 23
104.146192
 33
0.0
  0
MTEXT
  5
8D1
330
8C7
100
AcDbEntity
  8
0
 62
     5
 48
100.0
100
AcDbMText
 10
644.36729
 20
191.706193
 30
0.0
 40
40.000001
 41
0.0
 71
     5
 72
     1
  1
0,14
 73
     1
 44
1.0
  0
POINT
  5
8D2
330
8C7
100
AcDbEntity
  8
Defpoints
 62
     0
100
AcDbPoint
 10
446.308781
 20
3.090768
 30
0.0
  0
POINT
  5
8D3
330
8C7
100
AcDbEntity
  8
Defpoints
 62
     0
100
AcDbPoint
 10
446.447288
 20
104.146192
 30
0.0
  0
POINT
  5
8D4
330
8C7
100
AcDbEntity
  8
Defpoints
 62
     0
100
AcDbPoint
 10
446.447288
 20
104.146192
 30
0.0
  0
ENDBLK
  5
8C9
330
8C7
100
AcDbEntity
  8
0
100
AcDbBlockEnd
  0
BLOCK
  5
8DA
330
8D9
100
AcDbEntity
  8
0
100
AcDbBlockBegin
  2
*D74
 70
     1
 10
0.0
 20
0.0
 30
0.0
  3
*D74
  1
*D74
  0
LINE
  5
8DC
330
8D9
100
AcDbEntity
  8
0
 62
     5
370
    -2
100
AcDbLine
 10
446.44717
 20
107.362854
 30
0.0
 11
695.287172
 21
107.362854
 31
0.0
  0
LINE
  5
8DD
330
8D9
100
AcDbEntity
  8
0
 62
     0
370
    -2
100
AcDbLine
 10
446.447288
 20
166.717269
 30
0.0
 11
446.447288
 21
232.362854
 31
0.0
  0
LINE
  5
8DE
330
8D9
100
AcDbEntity
  8
0
 62
     0
370
    -2
100
AcDbLine
 10
393.612094
 20
138.440731
 30
0.0
 11
338.991665
 21
174.85435
 31
0.0
  0
ARC
  5
8DF
330
8D9
100
AcDbEntity
  8
0
 62
     5
370
    -2
100
AcDbCircle
 10
446.447288
 20
103.217269
 30
0.0
 40
4.145585420324718
100
AcDbArc
 50
90.001621
 51
270.00081
  0
ARC
  5
8E0
330
8D9
100
AcDbEntity
  8
0
 62
     5
370
    -2
100
AcDbCircle
 10
446.447288
 20
103.217269
 30
0.0
 40
4.145585420324718
100
AcDbArc
 50
326.309122
 51
146.308312
  0
ARC
  5
8E1
330
8D9
100
AcDbEntity
  8
0
 62
     5
370
    -2
100
AcDbCircle
 10
446.447288
 20
103.217269
 30
0.0
 40
4.145585420324718
100
AcDbArc
 50
90.0
 51
146.309932
  0
SOLID
  5
8E2
330
8D9
100
AcDbEntity
  8
0
 62
     5
100
AcDbTrace
 10
453.114237
 20
67.362901
 30
0.0
 11
439.780904
 21
67.362807
 31
0.0
 12
446.447288
 22
107.362854
 32
0.0
 13
446.447288
 23
107.362854
 33
0.0
  0
SOLID
  5
8E3
330
8D9
100
AcDbEntity
  8
0
 62
     5
100
AcDbTrace
 10
479.977848
 20
88.875558
 30
0.0
 11
472.581767
 21
77.781607
 31
0.0
 12
442.997952
 22
105.516826
 32
0.0
 13
442.997952
 23
105.516826
 33
0.0
  0
MTEXT
  5
8E4
330
8D9
100
AcDbEntity
  8
0
 62
     5
 48
100.0
100
AcDbMText
 10
590.867172
 20
192.362855
 30
0.0
 40
40.000001
 41
0.0
 71
     5
 72
     1
  1
56%%d
 73
     1
 44
1.0
  0
POINT
  5
8E5
330
8D9
100
AcDbEntity
  8
Defpoints
 62
     0
100
AcDbPoint
 10
446.447288
 20
103.217269
 30
0.0
  0
POINT
  5
8E6
330
8D9
100
AcDbEntity
  8
Defpoints
 62
     0
100
AcDbPoint
 10
446.447288
 20
104.217269
 30
0.0
  0
POINT
  5
8E7
330
8D9
100
AcDbEntity
  8
Defpoints
 62
     0
100
AcDbPoint
 10
445.615237
 20
103.771969
 30
0.0
  0
POINT
  5
8E8
330
8D9
100
AcDbEntity
  8
Defpoints
 62
     0
100
AcDbPoint
 10
443.921322
 20
106.504422
 30
0.0
  0
ENDBLK
  5
8DB
330
8D9
100
AcDbEntity
  8
0
100
AcDbBlockEnd
  0
BLOCK
  5
8ED
330
8EC
100
AcDbEntity
  8
0
100
AcDbBlockBegin
  2
*D75
 70
     1
 10
0.0
 20
0.0
 30
0.0
  3
*D75
  1
*D75
  0
LINE
  5
8EF
330
8EC
100
AcDbEntity
  8
0
 62
     0
370
    -2
100
AcDbLine
 10
446.308781
 20
65.590768
 30
0.0
 11
446.308781
 21
229.146192
 31
0.0
  0
LINE
  5
8F0
330
8EC
100
AcDbEntity
  8
0
 62
     0
370
    -2
100
AcDbLine
 10
446.447288
 20
166.646192
 30
0.0
 11
446.447288
 21
229.146192
 31
0.0
  0
LINE
  5
8F1
330
8EC
100
AcDbEntity
  8
0
 62
     5
370
    -2
100
AcDbLine
 10
486.447288
 20
104.146192
 30
0.0
 11
762.287291
 21
104.146192
 31
0.0
  0
LINE
  5
8F2
330
8EC
100
AcDbEntity
  8
0
 62
     5
370
    -2
100
AcDbLine
 10
446.308781
 20
104.146192
 30
0.0
 11
446.447288
 21
104.146192
 31
0.0
  0
LINE
  5
8F3
330
8EC
100
AcDbEntity
  8
0
 62
     5
370
    -2
100
AcDbLine
 10
406.30878
 20
104.146192
 30
0.0
 11
366.30878
 21
104.146192
 31
0.0
  0
SOLID
  5
8F4
330
8EC
100
AcDbEntity
  8
0
 62
     5
100
AcDbTrace
 10
406.30878
 20
97.479526
 30
0.0
 11
406.30878
 21
110.812859
 31
0.0
 12
446.308781
 22
104.146192
 32
0.0
 13
446.308781
 23
104.146192
 33
0.0
  0
SOLID
  5
8F5
330
8EC
100
AcDbEntity
  8
0
 62
     5
100
AcDbTrace
 10
486.447288
 20
110.812859
 30
0.0
 11
486.447288
 21
97.479526
 31
0.0
 12
446.447288
 22
104.146192
 32
0.0
 13
446.447288
 23
104.146192
 33
0.0
  0
MTEXT
  5
8F6
330
8EC
100
AcDbEntity
  8
0
 62
     5
 48
100.0
100
AcDbMText
 10
644.36729
 20
191.706193
 30
0.0
 40
40.000001
 41
0.0
 71
     5
 72
     1
  1
0,14
 73
     1
 44
1.0
  0
POINT
  5
8F7
330
8EC
100
AcDbEntity
  8
Defpoints
 62
     0
100
AcDbPoint
 10
446.308781
 20
3.090768
 30
0.0
  0
POINT
  5
8F8
330
8EC
100
AcDbEntity
  8
Defpoints
 62
     0
100
AcDbPoint
 10
446.447288
 20
104.146192
 30
0.0
  0
POINT
  5
8F9
330
8EC
100
AcDbEntity
  8
Defpoints
 62
     0
100
AcDbPoint
 10
446.447288
 20
104.146192
 30
0.0
  0
ENDBLK
  5
8EE
330
8EC
100
AcDbEntity
  8
0
100
AcDbBlockEnd
  0
BLOCK
  5
8FE
330
8FD
100
AcDbEntity
  8
0
100
AcDbBlockBegin
  2
*D76
 70
     1
 10
0.0
 20
0.0
 30
0.0
  3
*D76
  1
*D76
  0
LINE
  5
900
330
8FD
100
AcDbEntity
  8
0
 62
     5
370
    -2
100
AcDbLine
 10
446.447175
 20
108.235363
 30
0.0
 11
161.287173
 21
108.235363
 31
0.0
  0
LINE
  5
901
330
8FD
100
AcDbEntity
  8
0
 62
     0
370
    -2
100
AcDbLine
 10
446.447288
 20
167.753328
 30
0.0
 11
446.447288
 21
233.235363
 31
0.0
  0
LINE
  5
902
330
8FD
100
AcDbEntity
  8
0
 62
     0
370
    -2
100
AcDbLine
 10
499.282481
 20
139.47679
 30
0.0
 11
553.766828
 21
175.799688
 31
0.0
  0
ARC
  5
903
330
8FD
100
AcDbEntity
  8
0
 62
     5
370
    -2
100
AcDbCircle
 10
446.447288
 20
104.253328
 30
0.0
 40
3.982035466614609
100
AcDbArc
 50
90.001621
 51
270.00081
  0
ARC
  5
904
330
8FD
100
AcDbEntity
  8
0
 62
     5
370
    -2
100
AcDbCircle
 10
446.447288
 20
104.253328
 30
0.0
 40
3.982035466614609
100
AcDbArc
 50
213.689257
 51
33.688447
  0
ARC
  5
905
330
8FD
100
AcDbEntity
  8
0
 62
     5
370
    -2
100
AcDbCircle
 10
446.447288
 20
104.253328
 30
0.0
 40
3.982035466614609
100
AcDbArc
 50
90.0
 51
33.690068
  0
SOLID
  5
906
330
8FD
100
AcDbEntity
  8
0
 62
     5
100
AcDbTrace
 10
453.114237
 20
68.23541
 30
0.0
 11
439.780904
 21
68.235316
 31
0.0
 12
446.447288
 22
108.235363
 32
0.0
 13
446.447288
 23
108.235363
 33
0.0
  0
SOLID
  5
907
330
8FD
100
AcDbEntity
  8
0
 62
     5
100
AcDbTrace
 10
420.176335
 20
78.727363
 30
0.0
 11
412.78041
 21
89.821419
 31
0.0
 12
449.760542
 22
106.462164
 32
0.0
 13
449.760542
 23
106.462164
 33
0.0
  0
MTEXT
  5
908
330
8FD
100
AcDbEntity
  8
0
 62
     5
 48
100.0
100
AcDbMText
 10
283.867174
 20
193.235364
 30
0.0
 40
40.000001
 41
0.0
 71
     5
 72
     1
  1
304%%d
 73
     1
 44
1.0
  0
POINT
  5
909
330
8FD
100
AcDbEntity
  8
Defpoints
 62
     0
100
AcDbPoint
 10
446.447288
 20
104.253328
 30
0.0
  0
POINT
  5
90A
330
8FD
100
AcDbEntity
  8
Defpoints
 62
     0
100
AcDbPoint
 10
446.447288
 20
105.253328
 30
0.0
  0
POINT
  5
90B
330
8FD
100
AcDbEntity
  8
Defpoints
 62
     0
100
AcDbPoint
 10
447.279338
 20
104.808028
 30
0.0
  0
POINT
  5
90C
330
8FD
100
AcDbEntity
  8
Defpoints
 62
     0
100
AcDbPoint
 10
447.968581
 20
100.573345
 30
0.0
  0
ENDBLK
  5
8FF
330
8FD
100
AcDbEntity
  8
0
100
AcDbBlockEnd
  0
BLOCK
  5
911
330
910
100
AcDbEntity
  8
0
100
AcDbBlockBegin
  2
*D77
 70
     1
 10
0.0
 20
0.0
 30
0.0
  3
*D77
  1
*D77
  0
LINE
  5
913
330
910
100
AcDbEntity
  8
0
 62
     0
370
    -2
100
AcDbLine
 10
383.947288
 20
104.146192
 30
0.0
 11
321.447288
 21
104.146192
 31
0.0
  0
LINE
  5
914
330
910
100
AcDbEntity
  8
0
 62
     0
370
    -2
100
AcDbLine
 10
383.947288
 20
304.146192
 30
0.0
 11
321.447288
 21
304.146192
 31
0.0
  0
LINE
  5
915
330
910
100
AcDbEntity
  8
0
 62
     5
370
    -2
100
AcDbLine
 10
446.447288
 20
104.146192
 30
0.0
 11
446.447288
 21
121.646192
 31
0.0
  0
LINE
  5
916
330
910
100
AcDbEntity
  8
0
 62
     5
370
    -2
100
AcDbLine
 10
446.447288
 20
304.146192
 30
0.0
 11
446.447288
 21
286.646193
 31
0.0
  0
LINE
  5
917
330
910
100
AcDbEntity
  8
0
 62
     5
370
    -2
100
AcDbLine
 10
446.447288
 20
64.146192
 30
0.0
 11
446.447288
 21
24.146191
 31
0.0
  0
LINE
  5
918
330
910
100
AcDbEntity
  8
0
 62
     5
370
    -2
100
AcDbLine
 10
446.447288
 20
344.146193
 30
0.0
 11
446.447288
 21
384.146193
 31
0.0
  0
SOLID
  5
919
330
910
100
AcDbEntity
  8
0
 62
     5
100
AcDbTrace
 10
453.113955
 20
64.146192
 30
0.0
 11
439.780621
 21
64.146192
 31
0.0
 12
446.447288
 22
104.146192
 32
0.0
 13
446.447288
 23
104.146192
 33
0.0
  0
SOLID
  5
91A
330
910
100
AcDbEntity
  8
0
 62
     5
100
AcDbTrace
 10
439.780621
 20
344.146193
 30
0.0
 11
453.113955
 21
344.146193
 31
0.0
 12
446.447288
 22
304.146192
 32
0.0
 13
446.447288
 23
304.146192
 33
0.0
  0
MTEXT
  5
91B
330
910
100
AcDbEntity
  8
0
 62
     5
 48
100.0
100
AcDbMText
 10
446.447288
 20
204.146192
 30
0.0
 40
40.000001
 41
0.0
 71
     5
 72
     1
  1
200
 73
     1
 44
1.0
  0
POINT
  5
91C
330
910
100
AcDbEntity
  8
Defpoints
 62
     0
100
AcDbPoint
 10
446.447288
 20
104.146192
 30
0.0
  0
POINT
  5
91D
330
910
100
AcDbEntity
  8
Defpoints
 62
     0
100
AcDbPoint
 10
446.447288
 20
304.146192
 30
0.0
  0
POINT
  5
920
330
910
100
AcDbEntity
  8
Defpoints
 62
     0
100
AcDbPoint
 10
446.447288
 20
304.146192
 30
0.0
  0
ENDBLK
  5
912
330
910
100
AcDbEntity
  8
0
100
AcDbBlockEnd
  0
BLOCK
  5
923
330
922
100
AcDbEntity
  8
0
100
AcDbBlockBegin
  2
*D78
 70
     1
 10
0.0
 20
0.0
 30
0.0
  3
*D78
  1
*D78
  0
LINE
  5
925
330
922
100
AcDbEntity
  8
0
 62
     5
370
    -2
100
AcDbLine
 10
446.447158
 20
107.804201
 30
0.0
 11
695.28716
 21
107.804201
 31
0.0
  0
LINE
  5
926
330
922
100
AcDbEntity
  8
0
 62
     0
370
    -2
100
AcDbLine
 10
446.447288
 20
166.717269
 30
0.0
 11
446.447288
 21
232.804201
 31
0.0
  0
LINE
  5
927
330
922
100
AcDbEntity
  8
0
 62
     0
370
    -2
100
AcDbLine
 10
393.612094
 20
138.440731
 30
0.0
 11
338.624443
 21
175.099165
 31
0.0
  0
ARC
  5
928
330
922
100
AcDbEntity
  8
0
 62
     5
370
    -2
100
AcDbCircle
 10
446.447288
 20
103.217269
 30
0.0
 40
4.58693162362231
100
AcDbArc
 50
90.001621
 51
270.00081
  0
ARC
  5
929
330
922
100
AcDbEntity
  8
0
 62
     5
370
    -2
100
AcDbCircle
 10
446.447288
 20
103.217269
 30
0.0
 40
4.58693162362231
100
AcDbArc
 50
326.309122
 51
146.308312
  0
ARC
  5
92A
330
922
100
AcDbEntity
  8
0
 62
     5
370
    -2
100
AcDbCircle
 10
446.447288
 20
103.217269
 30
0.0
 40
4.58693162362231
100
AcDbArc
 50
90.0
 51
146.309932
  0
SOLID
  5
92B
330
922
100
AcDbEntity
  8
0
 62
     5
100
AcDbTrace
 10
453.114237
 20
67.804247
 30
0.0
 11
439.780904
 21
67.804153
 31
0.0
 12
446.447288
 22
107.804201
 32
0.0
 13
446.447288
 23
107.804201
 33
0.0
  0
SOLID
  5
92C
330
922
100
AcDbEntity
  8
0
 62
     5
100
AcDbTrace
 10
479.610626
 20
89.120373
 30
0.0
 11
472.214545
 21
78.026421
 31
0.0
 12
442.63073
 22
105.761641
 32
0.0
 13
442.63073
 23
105.761641
 33
0.0
  0
MTEXT
  5
92D
330
922
100
AcDbEntity
  8
0
 62
     5
 48
100.0
100
AcDbMText
 10
590.867159
 20
192.804201
 30
0.0
 40
40.000001
 41
0.0
 71
     5
 72
     1
  1
56%%d
 73
     1
 44
1.0
  0
POINT
  5
92E
330
922
100
AcDbEntity
  8
Defpoints
 62
     0
100
AcDbPoint
 10
446.447288
 20
103.217269
 30
0.0
  0
POINT
  5
92F
330
922
100
AcDbEntity
  8
Defpoints
 62
     0
100
AcDbPoint
 10
446.447288
 20
104.217269
 30
0.0
  0
POINT
  5
930
330
922
100
AcDbEntity
  8
Defpoints
 62
     0
100
AcDbPoint
 10
445.615237
 20
103.771969
 30
0.0
  0
POINT
  5
931
330
922
100
AcDbEntity
  8
Defpoints
 62
     0
100
AcDbPoint
 10
443.652404
 20
106.854378
 30
0.0
  0
ENDBLK
  5
924
330
922
100
AcDbEntity
  8
0
100
AcDbBlockEnd
  0
BLOCK
  5
936
330
935
100
AcDbEntity
  8
0
100
AcDbBlockBegin
  2
*D79
 70
     1
 10
0.0
 20
0.0
 30
0.0
  3
*D79
  1
*D79
  0
LINE
  5
938
330
935
100
AcDbEntity
  8
0
 62
     0
370
    -2
100
AcDbLine
 10
383.947288
 20
104.146192
 30
0.0
 11
321.447288
 21
104.146192
 31
0.0
  0
LINE
  5
939
330
935
100
AcDbEntity
  8
0
 62
     0
370
    -2
100
AcDbLine
 10
383.947288
 20
304.146192
 30
0.0
 11
321.447288
 21
304.146192
 31
0.0
  0
LINE
  5
93A
330
935
100
AcDbEntity
  8
0
 62
     5
370
    -2
100
AcDbLine
 10
446.447288
 20
104.146192
 30
0.0
 11
446.447288
 21
121.646192
 31
0.0
  0
LINE
  5
93B
330
935
100
AcDbEntity
  8
0
 62
     5
370
    -2
100
AcDbLine
 10
446.447288
 20
304.146192
 30
0.0
 11
446.447288
 21
286.646193
 31
0.0
  0
LINE
  5
93C
330
935
100
AcDbEntity
  8
0
 62
     5
370
    -2
100
AcDbLine
 10
446.447288
 20
64.146192
 30
0.0
 11
446.447288
 21
24.146191
 31
0.0
  0
LINE
  5
93D
330
935
100
AcDbEntity
  8
0
 62
     5
370
    -2
100
AcDbLine
 10
446.447288
 20
344.146193
 30
0.0
 11
446.447288
 21
384.146193
 31
0.0
  0
SOLID
  5
93E
330
935
100
AcDbEntity
  8
0
 62
     5
100
AcDbTrace
 10
453.113955
 20
64.146192
 30
0.0
 11
439.780621
 21
64.146192
 31
0.0
 12
446.447288
 22
104.146192
 32
0.0
 13
446.447288
 23
104.146192
 33
0.0
  0
SOLID
  5
93F
330
935
100
AcDbEntity
  8
0
 62
     5
100
AcDbTrace
 10
439.780621
 20
344.146193
 30
0.0
 11
453.113955
 21
344.146193
 31
0.0
 12
446.447288
 22
304.146192
 32
0.0
 13
446.447288
 23
304.146192
 33
0.0
  0
MTEXT
  5
940
330
935
100
AcDbEntity
  8
0
 62
     5
 48
100.0
100
AcDbMText
 10
446.447288
 20
204.146192
 30
0.0
 40
40.000001
 41
0.0
 71
     5
 72
     1
  1
200
 73
     1
 44
1.0
  0
POINT
  5
941
330
935
100
AcDbEntity
  8
Defpoints
 62
     0
100
AcDbPoint
 10
446.447288
 20
104.146192
 30
0.0
  0
POINT
  5
942
330
935
100
AcDbEntity
  8
Defpoints
 62
     0
100
AcDbPoint
 10
446.447288
 20
304.146192
 30
0.0
  0
POINT
  5
945
330
935
100
AcDbEntity
  8
Defpoints
 62
     0
100
AcDbPoint
 10
446.447288
 20
304.146192
 30
0.0
  0
ENDBLK
  5
937
330
935
100
AcDbEntity
  8
0
100
AcDbBlockEnd
  0
BLOCK
  5
948
330
947
100
AcDbEntity
  8
0
100
AcDbBlockBegin
  2
*D80
 70
     1
 10
0.0
 20
0.0
 30
0.0
  3
*D80
  1
*D80
  0
LINE
  5
94A
330
947
100
AcDbEntity
  8
0
 62
     5
370
    -2
100
AcDbLine
 10
446.447094
 20
111.104114
 30
0.0
 11
161.287092
 21
111.104114
 31
0.0
  0
LINE
  5
94B
330
947
100
AcDbEntity
  8
0
 62
     0
370
    -2
100
AcDbLine
 10
446.447288
 20
167.753328
 30
0.0
 11
446.447288
 21
236.104114
 31
0.0
  0
LINE
  5
94C
330
947
100
AcDbEntity
  8
0
 62
     0
370
    -2
100
AcDbLine
 10
499.282481
 20
139.47679
 30
0.0
 11
556.153773
 21
177.390985
 31
0.0
  0
ARC
  5
94D
330
947
100
AcDbEntity
  8
0
 62
     5
370
    -2
100
AcDbCircle
 10
446.447288
 20
104.253328
 30
0.0
 40
6.850785788048832
100
AcDbArc
 50
90.001621
 51
270.00081
  0
ARC
  5
94E
330
947
100
AcDbEntity
  8
0
 62
     5
370
    -2
100
AcDbCircle
 10
446.447288
 20
104.253328
 30
0.0
 40
6.850785788048832
100
AcDbArc
 50
213.689257
 51
33.688447
  0
ARC
  5
94F
330
947
100
AcDbEntity
  8
0
 62
     5
370
    -2
100
AcDbCircle
 10
446.447288
 20
104.253328
 30
0.0
 40
6.850785788048832
100
AcDbArc
 50
90.0
 51
33.690068
  0
SOLID
  5
950
330
947
100
AcDbEntity
  8
0
 62
     5
100
AcDbTrace
 10
453.114237
 20
71.10416
 30
0.0
 11
439.780904
 21
71.104066
 31
0.0
 12
446.447288
 22
111.104114
 32
0.0
 13
446.447288
 23
111.104114
 33
0.0
  0
SOLID
  5
951
330
947
100
AcDbEntity
  8
0
 62
     5
100
AcDbTrace
 10
422.563279
 20
80.318659
 30
0.0
 11
415.167355
 21
91.412715
 31
0.0
 12
452.147486
 22
108.05346
 32
0.0
 13
452.147486
 23
108.05346
 33
0.0
  0
MTEXT
  5
952
330
947
100
AcDbEntity
  8
0
 62
     5
 48
100.0
100
AcDbMText
 10
283.867092
 20
196.104114
 30
0.0
 40
40.000001
 41
0.0
 71
     5
 72
     1
  1
304%%d
 73
     1
 44
1.0
  0
POINT
  5
953
330
947
100
AcDbEntity
  8
Defpoints
 62
     0
100
AcDbPoint
 10
446.447288
 20
104.253328
 30
0.0
  0
POINT
  5
954
330
947
100
AcDbEntity
  8
Defpoints
 62
     0
100
AcDbPoint
 10
446.447288
 20
105.253328
 30
0.0
  0
POINT
  5
955
330
947
100
AcDbEntity
  8
Defpoints
 62
     0
100
AcDbPoint
 10
447.279338
 20
104.808028
 30
0.0
  0
POINT
  5
956
330
947
100
AcDbEntity
  8
Defpoints
 62
     0
100
AcDbPoint
 10
449.064556
 20
97.9222
 30
0.0
  0
ENDBLK
  5
949
330
947
100
AcDbEntity
  8
0
100
AcDbBlockEnd
  0
BLOCK
  5
95B
330
95A
100
AcDbEntity
  8
0
100
AcDbBlockBegin
  2
*D81
 70
     1
 10
0.0
 20
0.0
 30
0.0
  3
*D81
  1
*D81
  0
LINE
  5
95D
330
95A
100
AcDbEntity
  8
0
 62
     4
 48
100.0
370
    -2
100
AcDbLine
 10
445.709478
 20
105.488849
 30
0.0
 11
383.209478
 21
105.488849
 31
0.0
  0
LINE
  5
95E
330
95A
100
AcDbEntity
  8
0
 62
     4
 48
100.0
370
    -2
100
AcDbLine
 10
445.709478
 20
305.488849
 30
0.0
 11
383.209478
 21
305.488849
 31
0.0
  0
LINE
  5
95F
330
95A
100
AcDbEntity
  8
0
 62
     5
 48
100.0
370
    -2
100
AcDbLine
 10
508.209478
 20
105.488849
 30
0.0
 11
508.209478
 21
122.988849
 31
0.0
  0
LINE
  5
960
330
95A
100
AcDbEntity
  8
0
 62
     5
 48
100.0
370
    -2
100
AcDbLine
 10
508.209478
 20
305.488849
 30
0.0
 11
508.209478
 21
287.988849
 31
0.0
  0
LINE
  5
961
330
95A
100
AcDbEntity
  8
0
 62
     5
 48
100.0
370
    -2
100
AcDbLine
 10
508.209478
 20
65.488848
 30
0.0
 11
508.209478
 21
25.488848
 31
0.0
  0
LINE
  5
962
330
95A
100
AcDbEntity
  8
0
 62
     5
 48
100.0
370
    -2
100
AcDbLine
 10
508.209478
 20
345.48885
 30
0.0
 11
508.209478
 21
385.48885
 31
0.0
  0
SOLID
  5
963
330
95A
100
AcDbEntity
  8
0
 62
     5
100
AcDbTrace
 10
514.876145
 20
65.488848
 30
0.0
 11
501.542811
 21
65.488848
 31
0.0
 12
508.209478
 22
105.488849
 32
0.0
 13
508.209478
 23
105.488849
 33
0.0
  0
SOLID
  5
964
330
95A
100
AcDbEntity
  8
0
 62
     5
100
AcDbTrace
 10
501.542811
 20
345.48885
 30
0.0
 11
514.876145
 21
345.48885
 31
0.0
 12
508.209478
 22
305.488849
 32
0.0
 13
508.209478
 23
305.488849
 33
0.0
  0
MTEXT
  5
965
330
95A
100
AcDbEntity
  8
0
 62
     5
 48
100.0
100
AcDbMText
 10
508.209478
 20
205.488849
 30
0.0
 40
40.000001
 41
0.0
 71
     5
 72
     1
  1
200
 73
     1
 44
1.0
  0
POINT
  5
966
330
95A
100
AcDbEntity
  8
Defpoints
 62
     0
100
AcDbPoint
 10
508.209478
 20
105.488849
 30
0.0
  0
POINT
  5
967
330
95A
100
AcDbEntity
  8
Defpoints
 62
     0
100
AcDbPoint
 10
508.209478
 20
305.488849
 30
0.0
  0
POINT
  5
96A
330
95A
100
AcDbEntity
  8
Defpoints
 62
     0
100
AcDbPoint
 10
508.209478
 20
305.488849
 30
0.0
  0
ENDBLK
  5
95C
330
95A
100
AcDbEntity
  8
0
100
AcDbBlockEnd
  0
BLOCK
  5
96D
330
96C
100
AcDbEntity
  8
0
100
AcDbBlockBegin
  2
*D82
 70
     1
 10
0.0
 20
0.0
 30
0.0
  3
*D82
  1
*D82
  0
LINE
  5
96F
330
96C
100
AcDbEntity
  8
0
 62
     0
370
    -2
100
AcDbLine
 10
316.682187
 20
-133.286742
 30
0.0
 11
254.182187
 21
-133.286742
 31
0.0
  0
LINE
  5
970
330
96C
100
AcDbEntity
  8
0
 62
     0
370
    -2
100
AcDbLine
 10
316.682187
 20
-153.426587
 30
0.0
 11
254.182187
 21
-153.426587
 31
0.0
  0
LINE
  5
971
330
96C
100
AcDbEntity
  8
0
 62
     5
370
    -2
100
AcDbLine
 10
379.182187
 20
-233.426588
 30
0.0
 11
173.442185
 21
-233.426588
 31
0.0
  0
LINE
  5
972
330
96C
100
AcDbEntity
  8
0
 62
     5
370
    -2
100
AcDbLine
 10
379.182187
 20
-133.286742
 30
0.0
 11
379.182187
 21
-153.426587
 31
0.0
  0
LINE
  5
973
330
96C
100
AcDbEntity
  8
0
 62
     5
370
    -2
100
AcDbLine
 10
379.182187
 20
-93.286742
 30
0.0
 11
379.182187
 21
-53.286741
 31
0.0
  0
LINE
  5
974
330
96C
100
AcDbEntity
  8
0
 62
     5
370
    -2
100
AcDbLine
 10
379.182187
 20
-193.426587
 30
0.0
 11
379.182187
 21
-233.426588
 31
0.0
  0
SOLID
  5
975
330
96C
100
AcDbEntity
  8
0
 62
     5
100
AcDbTrace
 10
372.515521
 20
-93.286742
 30
0.0
 11
385.848854
 21
-93.286742
 31
0.0
 12
379.182187
 22
-133.286742
 32
0.0
 13
379.182187
 23
-133.286742
 33
0.0
  0
SOLID
  5
976
330
96C
100
AcDbEntity
  8
0
 62
     5
100
AcDbTrace
 10
385.848854
 20
-193.426587
 30
0.0
 11
372.515521
 21
-193.426587
 31
0.0
 12
379.182187
 22
-153.426587
 32
0.0
 13
379.182187
 23
-153.426587
 33
0.0
  0
MTEXT
  5
977
330
96C
100
AcDbEntity
  8
0
 62
     5
 48
100.0
100
AcDbMText
 10
245.062186
 20
-145.866588
 30
0.0
 40
40.000001
 41
0.0
 71
     5
 72
     1
  1
20,14
 73
     1
 44
1.0
  0
POINT
  5
97A
330
96C
100
AcDbEntity
  8
Defpoints
 62
     0
100
AcDbPoint
 10
379.182187
 20
-133.286742
 30
0.0
  0
POINT
  5
97B
330
96C
100
AcDbEntity
  8
Defpoints
 62
     0
100
AcDbPoint
 10
379.182187
 20
-153.426587
 30
0.0
  0
POINT
  5
97D
330
96C
100
AcDbEntity
  8
Defpoints
 62
     0
100
AcDbPoint
 10
379.182187
 20
-153.426587
 30
0.0
  0
ENDBLK
  5
96E
330
96C
100
AcDbEntity
  8
0
100
AcDbBlockEnd
  0
BLOCK
  5
980
330
97F
100
AcDbEntity
  8
0
100
AcDbBlockBegin
  2
*D83
 70
     1
 10
0.0
 20
0.0
 30
0.0
  3
*D83
  1
*D83
  0
LINE
  5
982
330
97F
100
AcDbEntity
  8
0
 62
     4
370
    -2
100
AcDbLine
 10
298.762506
 20
-293.325293
 30
0.0
 11
298.762506
 21
-88.752466
 31
0.0
  0
LINE
  5
983
330
97F
100
AcDbEntity
  8
0
 62
     4
370
    -2
100
AcDbLine
 10
448.762506
 20
-193.325293
 30
0.0
 11
448.762506
 21
-88.752466
 31
0.0
  0
LINE
  5
984
330
97F
100
AcDbEntity
  8
0
 62
     5
370
    -2
100
AcDbLine
 10
298.762506
 20
-213.752466
 30
0.0
 11
448.762506
 21
-213.752466
 31
0.0
  0
LINE
  5
985
330
97F
100
AcDbEntity
  8
0
 62
     5
370
    -2
100
AcDbLine
 10
258.762505
 20
-213.752466
 30
0.0
 11
218.762505
 21
-213.752466
 31
0.0
  0
LINE
  5
986
330
97F
100
AcDbEntity
  8
0
 62
     5
370
    -2
100
AcDbLine
 10
488.762507
 20
-213.752466
 30
0.0
 11
528.762507
 21
-213.752466
 31
0.0
  0
SOLID
  5
987
330
97F
100
AcDbEntity
  8
0
 62
     5
100
AcDbTrace
 10
258.762505
 20
-220.419133
 30
0.0
 11
258.762505
 21
-207.085799
 31
0.0
 12
298.762506
 22
-213.752466
 32
0.0
 13
298.762506
 23
-213.752466
 33
0.0
  0
SOLID
  5
988
330
97F
100
AcDbEntity
  8
0
 62
     5
100
AcDbTrace
 10
488.762507
 20
-207.085799
 30
0.0
 11
488.762507
 21
-220.419133
 31
0.0
 12
448.762506
 22
-213.752466
 32
0.0
 13
448.762506
 23
-213.752466
 33
0.0
  0
MTEXT
  5
989
330
97F
100
AcDbEntity
  8
0
 62
     5
 48
100.0
100
AcDbMText
 10
379.809141
 20
-130.672466
 30
0.0
 40
40.000001
 41
0.0
 71
     5
 72
     1
  1
150
 73
     1
 44
1.0
  0
POINT
  5
98A
330
97F
100
AcDbEntity
  8
Defpoints
 62
     0
100
AcDbPoint
 10
298.762506
 20
-355.825293
 30
0.0
  0
POINT
  5
98B
330
97F
100
AcDbEntity
  8
Defpoints
 62
     0
100
AcDbPoint
 10
448.762506
 20
-255.825293
 30
0.0
  0
POINT
  5
98C
330
97F
100
AcDbEntity
  8
Defpoints
 62
     0
100
AcDbPoint
 10
448.762506
 20
-213.752466
 30
0.0
  0
ENDBLK
  5
981
330
97F
100
AcDbEntity
  8
0
100
AcDbBlockEnd
  0
BLOCK
  5
9D7
330
9D6
100
AcDbEntity
  8
0
100
AcDbBlockBegin
  2
*D84
 70
     1
 10
0.0
 20
0.0
 30
0.0
  3
*D84
  1
*D84
  0
LINE
  5
9D9
330
9D6
100
AcDbEntity
  8
0
 62
     0
370
    -2
100
AcDbLine
 10
-10.054515
 20
862.610986
 30
0.0
 11
-10.054515
 21
1165.11099
 31
0.0
  0
LINE
  5
9DA
330
9D6
100
AcDbEntity
  8
0
 62
     0
370
    -2
100
AcDbLine
 10
-10.054515
 20
862.610986
 30
0.0
 11
-10.054515
 21
1165.11099
 31
0.0
  0
LINE
  5
9DB
330
9D6
100
AcDbEntity
  8
0
 62
     5
370
    -2
100
AcDbLine
 10
29.945485
 20
1040.11099
 30
0.0
 11
224.505486
 21
1040.11099
 31
0.0
  0
LINE
  5
9DC
330
9D6
100
AcDbEntity
  8
0
 62
     5
370
    -2
100
AcDbLine
 10
-10.054515
 20
1040.11099
 30
0.0
 11
-10.054515
 21
1040.11099
 31
0.0
  0
LINE
  5
9DD
330
9D6
100
AcDbEntity
  8
0
 62
     5
370
    -2
100
AcDbLine
 10
-50.054516
 20
1040.11099
 30
0.0
 11
-90.054517
 21
1040.11099
 31
0.0
  0
SOLID
  5
9DE
330
9D6
100
AcDbEntity
  8
0
 62
     5
100
AcDbTrace
 10
-50.054516
 20
1033.444323
 30
0.0
 11
-50.054516
 21
1046.777657
 31
0.0
 12
-10.054515
 22
1040.11099
 32
0.0
 13
-10.054515
 23
1040.11099
 33
0.0
  0
SOLID
  5
9DF
330
9D6
100
AcDbEntity
  8
0
 62
     5
100
AcDbTrace
 10
29.945485
 20
1046.777657
 30
0.0
 11
29.945485
 21
1033.444323
 31
0.0
 12
-10.054515
 22
1040.11099
 32
0.0
 13
-10.054515
 23
1040.11099
 33
0.0
  0
MTEXT
  5
9E0
330
9D6
100
AcDbEntity
  8
0
 62
     5
 48
100.0
100
AcDbMText
 10
147.225486
 20
1122.61099
 30
0.0
 40
40.000001
 41
0.0
 71
     5
 72
     1
  1
0
 73
     1
 44
1.0
  0
POINT
  5
9E1
330
9D6
100
AcDbEntity
  8
Defpoints
 62
     0
100
AcDbPoint
 10
-10.054515
 20
800.110986
 30
0.0
  0
POINT
  5
9E2
330
9D6
100
AcDbEntity
  8
Defpoints
 62
     0
100
AcDbPoint
 10
-10.054515
 20
800.110986
 30
0.0
  0
POINT
  5
9E3
330
9D6
100
AcDbEntity
  8
Defpoints
 62
     0
100
AcDbPoint
 10
-10.054515
 20
1040.11099
 30
0.0
  0
ENDBLK
  5
9D8
330
9D6
100
AcDbEntity
  8
0
100
AcDbBlockEnd
  0
BLOCK
  5
9E8
330
9E7
100
AcDbEntity
  8
0
100
AcDbBlockBegin
  2
*D85
 70
     1
 10
0.0
 20
0.0
 30
0.0
  3
*D85
  1
*D85
  0
LINE
  5
9EA
330
9E7
100
AcDbEntity
  8
0
 62
     0
370
    -2
100
AcDbLine
 10
-10.054515
 20
862.610986
 30
0.0
 11
-10.054515
 21
1165.11099
 31
0.0
  0
LINE
  5
9EB
330
9E7
100
AcDbEntity
  8
0
 62
     0
370
    -2
100
AcDbLine
 10
1255.641405
 20
863.455309
 30
0.0
 11
1255.641405
 21
1165.11099
 31
0.0
  0
LINE
  5
9EC
330
9E7
100
AcDbEntity
  8
0
 62
     5
370
    -2
100
AcDbLine
 10
29.945485
 20
1040.11099
 30
0.0
 11
1215.641404
 21
1040.11099
 31
0.0
  0
SOLID
  5
9ED
330
9E7
100
AcDbEntity
  8
0
 62
     5
100
AcDbTrace
 10
29.945485
 20
1046.777657
 30
0.0
 11
29.945485
 21
1033.444323
 31
0.0
 12
-10.054515
 22
1040.11099
 32
0.0
 13
-10.054515
 23
1040.11099
 33
0.0
  0
SOLID
  5
9EE
330
9E7
100
AcDbEntity
  8
0
 62
     5
100
AcDbTrace
 10
1215.641404
 20
1033.444323
 30
0.0
 11
1215.641404
 21
1046.777657
 31
0.0
 12
1255.641405
 22
1040.11099
 32
0.0
 13
1255.641405
 23
1040.11099
 33
0.0
  0
MTEXT
  5
9EF
330
9E7
100
AcDbEntity
  8
0
 62
     5
 48
100.0
100
AcDbMText
 10
622.793445
 20
1123.19099
 30
0.0
 40
40.000001
 41
0.0
 71
     5
 72
     1
  1
1260
 73
     1
 44
1.0
  0
POINT
  5
9F0
330
9E7
100
AcDbEntity
  8
Defpoints
 62
     0
100
AcDbPoint
 10
-10.054515
 20
800.110986
 30
0.0
  0
POINT
  5
9F1
330
9E7
100
AcDbEntity
  8
Defpoints
 62
     0
100
AcDbPoint
 10
1255.641405
 20
800.955309
 30
0.0
  0
POINT
  5
9F2
330
9E7
100
AcDbEntity
  8
Defpoints
 62
     0
100
AcDbPoint
 10
1255.641405
 20
1040.11099
 30
0.0
  0
ENDBLK
  5
9E9
330
9E7
100
AcDbEntity
  8
0
100
AcDbBlockEnd
  0
BLOCK
  5
9F9
330
9F8
100
AcDbEntity
  8
0
100
AcDbBlockBegin
  2
*D86
 70
     1
 10
0.0
 20
0.0
 30
0.0
  3
*D86
  1
*D86
  0
LINE
  5
9FB
330
9F8
100
AcDbEntity
  8
0
 62
     0
370
    -2
100
AcDbLine
 10
1255.641405
 20
863.455309
 30
0.0
 11
1255.641405
 21
1165.11099
 31
0.0
  0
LINE
  5
9FC
330
9F8
100
AcDbEntity
  8
0
 62
     0
370
    -2
100
AcDbLine
 10
1255.641405
 20
863.455309
 30
0.0
 11
1255.641405
 21
1165.11099
 31
0.0
  0
LINE
  5
9FD
330
9F8
100
AcDbEntity
  8
0
 62
     5
370
    -2
100
AcDbLine
 10
1295.641406
 20
1040.11099
 30
0.0
 11
1490.201407
 21
1040.11099
 31
0.0
  0
LINE
  5
9FE
330
9F8
100
AcDbEntity
  8
0
 62
     5
370
    -2
100
AcDbLine
 10
1255.641405
 20
1040.11099
 30
0.0
 11
1255.641405
 21
1040.11099
 31
0.0
  0
LINE
  5
9FF
330
9F8
100
AcDbEntity
  8
0
 62
     5
370
    -2
100
AcDbLine
 10
1215.641404
 20
1040.11099
 30
0.0
 11
1175.641404
 21
1040.11099
 31
0.0
  0
SOLID
  5
A00
330
9F8
100
AcDbEntity
  8
0
 62
     5
100
AcDbTrace
 10
1215.641404
 20
1033.444323
 30
0.0
 11
1215.641404
 21
1046.777657
 31
0.0
 12
1255.641405
 22
1040.11099
 32
0.0
 13
1255.641405
 23
1040.11099
 33
0.0
  0
SOLID
  5
A01
330
9F8
100
AcDbEntity
  8
0
 62
     5
100
AcDbTrace
 10
1295.641406
 20
1046.777657
 30
0.0
 11
1295.641406
 21
1033.444323
 31
0.0
 12
1255.641405
 22
1040.11099
 32
0.0
 13
1255.641405
 23
1040.11099
 33
0.0
  0
MTEXT
  5
A02
330
9F8
100
AcDbEntity
  8
0
 62
     5
 48
100.0
100
AcDbMText
 10
1412.921406
 20
1122.61099
 30
0.0
 40
40.000001
 41
0.0
 71
     5
 72
     1
  1
0
 73
     1
 44
1.0
  0
POINT
  5
A03
330
9F8
100
AcDbEntity
  8
Defpoints
 62
     0
100
AcDbPoint
 10
1255.641405
 20
800.955309
 30
0.0
  0
POINT
  5
A04
330
9F8
100
AcDbEntity
  8
Defpoints
 62
     0
100
AcDbPoint
 10
1255.641405
 20
800.955309
 30
0.0
  0
POINT
  5
A05
330
9F8
100
AcDbEntity
  8
Defpoints
 62
     0
100
AcDbPoint
 10
1255.641405
 20
1040.11099
 30
0.0
  0
ENDBLK
  5
9FA
330
9F8
100
AcDbEntity
  8
0
100
AcDbBlockEnd
  0
ENDSEC
  0
SECTION
  2
ENTITIES
  0
LWPOLYLINE
  5
AD
102
{ACAD_REACTORS
330
805
330
817
102
}
330
1F
100
AcDbEntity
  8
0
 48
100.0
100
AcDbPolyline
 90
        4
 70
     1
 43
0.0
 10
446.399365
 20
403.15597
 10
846.399365
 20
403.15597
 10
846.399365
 20
503.15597
 10
446.399365
 20
503.15597
  0
LINE
  5
AF
330
1F
100
AcDbEntity
  8
0
 48
100.0
100
AcDbLine
 10
-4.025053
 20
750.19861
 30
0.0
 11
-4.025053
 21
250.19861
 31
0.0
  0
LINE
  5
B0
330
1F
100
AcDbEntity
  8
0
 48
100.0
100
AcDbLine
 10
-4.61698
 20
249.606683
 30
0.0
 11
295.38302
 21
499.606683
 31
0.0
  0
LINE
  5
B1
330
1F
100
AcDbEntity
  8
0
 48
100.0
100
AcDbLine
 10
295.38302
 20
499.606683
 30
0.0
 11
-4.61698
 21
749.606683
 31
0.0
  0
LINE
  5
D2
102
{ACAD_REACTORS
330
782
102
}
330
1F
100
AcDbEntity
  8
0
 48
100.0
100
AcDbLine
 10
295.716164
 20
0.105853
 30
0.0
 11
295.716164
 21
500.105853
 31
0.0
  0
LINE
  5
D3
330
1F
100
AcDbEntity
  8
0
 48
100.0
100
AcDbLine
 10
295.4202
 20
499.80989
 30
0.0
 11
-4.5798
 21
249.80989
 31
0.0
  0
LINE
  5
D4
330
1F
100
AcDbEntity
  8
0
 48
100.0
100
AcDbLine
 10
-4.283836
 20
250.105853
 30
0.0
 11
295.716164
 21
0.105853
 31
0.0
  0
LINE
  5
D6
102
{ACAD_REACTORS
330
74E
102
}
330
1F
100
AcDbEntity
  8
0
 48
100.0
100
AcDbLine
 10
446.321469
 20
3.108626
 30
0.0
 11
1247.484813
 21
4.033501
 31
0.0
  0
LINE
  5
D7
330
1F
100
AcDbEntity
  8
0
 48
100.0
100
AcDbLine
 10
1247.484813
 20
4.033501
 30
0.0
 11
847.484813
 21
404.033501
 31
0.0
  0
LINE
  5
D9
330
1F
100
AcDbEntity
  8
0
 48
100.0
100
AcDbLine
 10
446.308781
 20
3.090768
 30
0.0
 11
446.308781
 21
403.090768
 31
0.0
  0
LINE
  5
DA
330
1F
100
AcDbEntity
  8
0
 48
100.0
100
AcDbLine
 10
446.308781
 20
403.090768
 30
0.0
 11
846.308781
 21
403.090768
 31
0.0
  0
LINE
  5
DB
330
1F
100
AcDbEntity
  8
0
 48
100.0
100
AcDbLine
 10
846.308781
 20
403.090768
 30
0.0
 11
446.308781
 21
3.090768
 31
0.0
  0
LINE
  5
E5
330
1F
100
AcDbEntity
  8
0
 48
100.0
100
AcDbLine
 10
296.077193
 20
204.006598
 30
0.0
 11
296.077193
 21
4.006598
 31
0.0
  0
LINE
  5
E6
330
1F
100
AcDbEntity
  8
0
 48
100.0
100
AcDbLine
 10
296.077193
 20
4.006598
 30
0.0
 11
446.077193
 21
104.006598
 31
0.0
  0
LINE
  5
E7
330
1F
100
AcDbEntity
  8
0
 48
100.0
100
AcDbLine
 10
445.929212
 20
103.562653
 30
0.0
 11
295.929212
 21
203.562653
 31
0.0
  0
LWPOLYLINE
  5
E8
330
1F
100
AcDbEntity
  8
0
 62
     1
 48
100.0
100
AcDbPolyline
 90
        4
 70
     1
 43
0.0
 10
-10.054515
 20
0.110986
 10
1255.641405
 20
0.955309
 10
1255.641405
 20
800.955309
 10
-10.054515
 20
800.110986
  0
LINE
  5
12F
330
1F
100
AcDbEntity
  8
0
 48
100.0
100
AcDbLine
 10
847.512414
 20
402.720511
 30
0.0
 11
1247.512414
 21
402.720511
 31
0.0
  0
LINE
  5
130
102
{ACAD_REACTORS
330
571
102
}
330
1F
100
AcDbEntity
  8
0
 48
100.0
100
AcDbLine
 10
1247.512414
 20
402.720511
 30
0.0
 11
1247.512414
 21
2.720511
 31
0.0
  0
LINE
  5
131
330
1F
100
AcDbEntity
  8
0
 48
100.0
100
AcDbLine
 10
1247.512414
 20
2.720511
 30
0.0
 11
847.512414
 21
402.720511
 31
0.0
  0
LWPOLYLINE
  5
152
330
1F
100
AcDbEntity
  8
0
 48
100.0
100
AcDbPolyline
 90
        4
 70
     1
 43
0.0
 10
847.117025
 20
403.312438
 10
1247.117025
 20
403.312438
 10
1247.117025
 20
503.312438
 10
847.117025
 20
503.312438
  0
LINE
  5
173
330
1F
100
AcDbEntity
  8
0
 48
100.0
100
AcDbLine
 10
446.447288
 20
104.146192
 30
0.0
 11
446.447288
 21
304.146192
 31
0.0
  0
LINE
  5
174
330
1F
100
AcDbEntity
  8
0
 48
100.0
100
AcDbLine
 10
446.447288
 20
304.146192
 30
0.0
 11
296.447288
 21
204.146192
 31
0.0
  0
LINE
  5
175
330
1F
100
AcDbEntity
  8
0
 48
100.0
100
AcDbLine
 10
296.003343
 20
203.702247
 30
0.0
 11
446.003343
 21
103.702247
 31
0.0
  0
LINE
  5
284
330
1F
100
AcDbEntity
  8
0
 48
100.0
100
AcDbLine
 10
446.059516
 20
455.170549
 30
0.0
 11
345.672421
 21
341.29862
 31
0.0
  0
LINE
  5
285
330
1F
100
AcDbEntity
  8
0
 48
100.0
100
AcDbLine
 10
345.672421
 20
341.29862
 30
0.0
 11
345.280201
 21
236.720994
 31
0.0
  0
LINE
  5
2A6
330
1F
100
AcDbEntity
  8
0
 48
100.0
100
AcDbLine
 10
217.446175
 20
0.080406
 30
0.0
 11
103.574247
 21
100.467501
 31
0.0
  0
LINE
  5
2A7
330
1F
100
AcDbEntity
  8
0
 48
100.0
100
AcDbLine
 10
103.574247
 20
100.467501
 30
0.0
 11
-0.393336
 21
100.7769
 31
0.0
  0
LINE
  5
2A8
330
1F
100
AcDbEntity
  8
0
 48
100.0
100
AcDbLine
 10
-0.393336
 20
100.7769
 30
0.0
 11
-0.341166
 21
0.114877
 31
0.0
  0
LINE
  5
2A9
330
1F
100
AcDbEntity
  8
0
 48
100.0
100
AcDbLine
 10
-0.341166
 20
0.114877
 30
0.0
 11
217.411793
 21
0.085849
 31
0.0
  0
DIMENSION
  5
563
102
{ACAD_REACTORS
330
571
102
}
102
{ACAD_XDICTIONARY
360
570
102
}
330
1F
100
AcDbEntity
  8
0
100
AcDbDimension
  2
*D42
 10
1327.512415
 20
2.720511
 30
0.0
 11
1327.512415
 21
202.720511
 31
0.0
 70
    32
 71
     5
 42
400.0
  3
ISO-25
100
AcDbAlignedDimension
 13
1247.512414
 23
402.720511
 33
0.0
 14
1247.512414
 24
2.720511
 34
0.0
 50
-90.0
100
AcDbRotatedDimension
1001
ACAD
1000
DSTYLE
1002
{
1070
   340
1005
11
1070
   144
1040
1.0
1070
    40
1040
100.0
1070
   173
1070
     1
1070
   343
1005
0
1070
   342
1005
0
1070
   344
1005
0
1070
   283
1070
     0
1002
}
  0
DIMENSION
  5
73F
102
{ACAD_REACTORS
330
74E
102
}
102
{ACAD_XDICTIONARY
360
74D
102
}
330
1F
100
AcDbEntity
  8
0
100
AcDbDimension
  2
*D52
 10
1247.577166
 20
-75.966446
 30
0.0
 11
846.995494
 21
-76.428883
 31
0.0
 70
    32
  1
800
 71
     5
 42
801.163878
  3
ISO-25
100
AcDbAlignedDimension
 13
446.321469
 23
3.108626
 33
0.0
 14
1247.484813
 24
4.033501
 34
0.0
 50
0.066143
100
AcDbRotatedDimension
1001
ACAD
1000
DSTYLE
1002
{
1070
   340
1005
11
1070
   144
1040
1.0
1070
    40
1040
100.0
1070
   173
1070
     1
1070
   343
1005
0
1070
   342
1005
0
1070
   344
1005
0
1070
   283
1070
     0
1002
}
  0
DIMENSION
  5
772
102
{ACAD_REACTORS
330
782
102
}
102
{ACAD_XDICTIONARY
360
781
102
}
330
1F
100
AcDbEntity
  8
0
 48
100.0
100
AcDbDimension
  2
*D55
 10
-108.762288
 20
747.605853
 30
0.0
 11
-108.762288
 21
497.605853
 31
0.0
 70
    32
 71
     5
 42
500.0
  3
ISO-25
100
AcDbAlignedDimension
 13
70.716164
 23
247.605853
 33
0.0
 14
70.716164
 24
747.605853
 34
0.0
 50
90.0
100
AcDbRotatedDimension
1001
ACAD
1000
DSTYLE
1002
{
1070
   340
1005
11
1070
   144
1040
1.0
1070
    40
1040
100.0
1070
   173
1070
     1
1070
   343
1005
0
1070
   342
1005
0
1070
   344
1005
0
1070
   283
1070
     0
1002
}
  0
DIMENSION
  5
7A8
102
{ACAD_REACTORS
330
7B8
102
}
102
{ACAD_XDICTIONARY
360
7B7
102
}
330
1F
100
AcDbEntity
  8
0
100
AcDbDimension
  2
*D58
 10
-4.5798
 20
-171.616359
 30
0.0
 11
145.4202
 21
-88.536359
 31
0.0
 70
    32
 71
     5
 42
300.0
  3
ISO-25
100
AcDbAlignedDimension
 13
295.4202
 23
78.383641
 33
0.0
 14
-4.5798
 24
-171.616359
 34
0.0
100
AcDbRotatedDimension
1001
ACAD
1000
DSTYLE
1002
{
1070
   340
1005
11
1070
   144
1040
1.0
1070
    40
1040
100.0
1070
   173
1070
     1
1070
   343
1005
0
1070
   342
1005
0
1070
   344
1005
0
1070
   283
1070
     0
1002
}
  0
DIMENSION
  5
7F7
102
{ACAD_REACTORS
330
805
102
}
102
{ACAD_XDICTIONARY
360
804
102
}
330
1F
100
AcDbEntity
  8
0
100
AcDbDimension
  2
*D62
 10
446.399365
 20
583.155971
 30
0.0
 11
646.399365
 21
665.655971
 31
0.0
 70
    32
 71
     5
 42
400.0
  3
ISO-25
100
AcDbAlignedDimension
 13
846.399365
 23
503.15597
 33
0.0
 14
446.399365
 24
503.15597
 34
0.0
 50
180.0
100
AcDbRotatedDimension
1001
ACAD
1000
DSTYLE
1002
{
1070
   340
1005
11
1070
   144
1040
1.0
1070
    40
1040
100.0
1070
   173
1070
     1
1070
   343
1005
0
1070
   342
1005
0
1070
   344
1005
0
1070
   283
1070
     0
1002
}
  0
DIMENSION
  5
806
102
{ACAD_REACTORS
330
817
102
}
102
{ACAD_XDICTIONARY
360
816
102
}
330
1F
100
AcDbEntity
  8
0
100
AcDbDimension
  2
*D63
 10
1326.399372
 20
503.15597
 30
0.0
 11
1432.599373
 21
665.655971
 31
0.0
 70
    32
 71
     5
 42
100.0
  3
ISO-25
100
AcDbAlignedDimension
 13
846.399365
 23
403.15597
 33
0.0
 14
846.399365
 24
503.15597
 34
0.0
 50
90.0
100
AcDbRotatedDimension
1001
ACAD
1000
DSTYLE
1002
{
1070
   340
1005
11
1070
   144
1040
1.0
1070
    40
1040
100.0
1070
   173
1070
     1
1070
   343
1005
0
1070
   342
1005
0
1070
   344
1005
0
1070
   283
1070
     0
1002
}
  0
DIMENSION
  5
959
102
{ACAD_REACTORS
330
969
102
}
102
{ACAD_XDICTIONARY
360
968
102
}
330
1F
100
AcDbEntity
  8
0
 48
100.0
100
AcDbDimension
  2
*D81
 10
508.209478
 20
305.488849
 30
0.0
 11
508.209478
 21
205.488849
 31
0.0
 70
    32
 71
     5
 42
200.0
  3
ISO-25
100
AcDbAlignedDimension
 13
508.209478
 23
105.488849
 33
0.0
 14
508.209478
 24
305.488849
 34
0.0
 50
90.0
100
AcDbRotatedDimension
1001
ACAD
1000
DSTYLE
1002
{
1070
   340
1005
11
1070
   144
1040
1.0
1070
    40
1040
100.0
1070
   173
1070
     1
1070
   343
1005
0
1070
   342
1005
0
1070
   344
1005
0
1070
   283
1070
     0
1002
}
  0
DIMENSION
  5
97E
102
{ACAD_REACTORS
330
98F
102
}
102
{ACAD_XDICTIONARY
360
98E
102
}
330
1F
100
AcDbEntity
  8
0
100
AcDbDimension
  2
*D83
 10
448.762506
 20
-213.752466
 30
0.0
 11
379.809141
 21
-213.752466
 31
0.0
 70
   160
 71
     5
 42
150.0
  3
ISO-25
100
AcDbAlignedDimension
 13
298.762506
 23
-355.825293
 33
0.0
 14
448.762506
 24
-255.825293
 34
0.0
100
AcDbRotatedDimension
1001
ACAD
1000
DSTYLE
1002
{
1070
   340
1005
11
1070
   144
1040
1.0
1070
    40
1040
100.0
1070
   173
1070
     1
1070
   343
1005
0
1070
   342
1005
0
1070
   344
1005
0
1070
   283
1070
     0
1002
}
  0
MTEXT
  5
991
330
1F
100
AcDbEntity
  8
0
 48
100.0
100
AcDbMText
 10
738.281678
 20
179.109025
 30
0.0
 40
30.0
 41
126.881021
 71
     1
 72
     1
  1
1
 73
     1
 44
1.0
1001
ACAD
1000
ACAD_MTEXT_DEFINED_HEIGHT_BEGIN
1070
    46
1040
93.650278
1000
ACAD_MTEXT_DEFINED_HEIGHT_END
  0
MTEXT
  5
992
330
1F
100
AcDbEntity
  8
0
 48
100.0
100
AcDbMText
 10
608.647261
 20
312.914493
 30
0.0
 40
30.0
 41
132.922975
 71
     1
 72
     1
  1
2\P
 73
     1
 44
1.0
1001
ACAD
1000
ACAD_MTEXT_DEFINED_HEIGHT_BEGIN
1070
    46
1040
78.545394
1000
ACAD_MTEXT_DEFINED_HEIGHT_END
  0
MTEXT
  5
9B3
330
1F
100
AcDbEntity
  8
0
 48
100.0
100
AcDbMText
 10
1116.117786
 20
284.855669
 30
0.0
 40
30.0
 41
132.922975
 71
     1
 72
     1
  1
3
 73
     1
 44
1.0
1001
ACAD
1000
ACAD_MTEXT_DEFINED_HEIGHT_BEGIN
1070
    46
1040
78.545394
1000
ACAD_MTEXT_DEFINED_HEIGHT_END
  0
MTEXT
  5
9D4
330
1F
100
AcDbEntity
  8
0
 48
100.0
100
AcDbMText
 10
169.075014
 20
248.599598
 30
0.0
 40
30.0
 41
132.922975
 71
     1
 72
     1
  1
4
 73
     1
 44
1.0
1001
ACAD
1000
ACAD_MTEXT_DEFINED_HEIGHT_BEGIN
1070
    46
1040
78.545394
1000
ACAD_MTEXT_DEFINED_HEIGHT_END
  0
MTEXT
  5
A2B
330
1F
100
AcDbEntity
  8
0
 48
100.0
100
AcDbMText
 10
63.767289
 20
557.949625
 30
0.0
 40
30.0
 41
132.922975
 71
     1
 72
     1
  1
5
 73
     1
 44
1.0
1001
ACAD
1000
ACAD_MTEXT_DEFINED_HEIGHT_BEGIN
1070
    46
1040
78.545394
1000
ACAD_MTEXT_DEFINED_HEIGHT_END
  0
MTEXT
  5
A4C
330
1F
100
AcDbEntity
  8
0
 48
100.0
100
AcDbMText
 10
329.766646
 20
123.906265
 30
0.0
 40
30.0
 41
126.881021
 71
     1
 72
     1
  1
6
 73
     1
 44
1.0
1001
ACAD
1000
ACAD_MTEXT_DEFINED_HEIGHT_BEGIN
1070
    46
1040
93.650278
1000
ACAD_MTEXT_DEFINED_HEIGHT_END
  0
MTEXT
  5
A6D
330
1F
100
AcDbEntity
  8
0
 48
100.0
100
AcDbMText
 10
382.147598
 20
215.334836
 30
0.0
 40
30.0
 41
126.881021
 71
     1
 72
     1
  1
7
 73
     1
 44
1.0
1001
ACAD
1000
ACAD_MTEXT_DEFINED_HEIGHT_BEGIN
1070
    46
1040
93.650278
1000
ACAD_MTEXT_DEFINED_HEIGHT_END
  0
MTEXT
  5
A8E
330
1F
100
AcDbEntity
  8
0
 48
100.0
100
AcDbMText
 10
79.290455
 20
65.811027
 30
0.0
 40
30.0
 41
126.881021
 71
     1
 72
     1
  1
9
 73
     1
 44
1.0
1001
ACAD
1000
ACAD_MTEXT_DEFINED_HEIGHT_BEGIN
1070
    46
1040
93.650278
1000
ACAD_MTEXT_DEFINED_HEIGHT_END
  0
MTEXT
  5
AAF
330
1F
100
AcDbEntity
  8
0
 48
100.0
100
AcDbMText
 10
393.576169
 20
353.430074
 30
0.0
 40
30.0
 41
126.881021
 71
     1
 72
     1
  1
8
 73
     1
 44
1.0
1001
ACAD
1000
ACAD_MTEXT_DEFINED_HEIGHT_BEGIN
1070
    46
1040
93.650278
1000
ACAD_MTEXT_DEFINED_HEIGHT_END
  0
MTEXT
  5
B51
330
1F
100
AcDbEntity
  8
0
 48
100.0
100
AcDbMText
 10
621.475807
 20
469.46182
 30
0.0
 40
30.0
 41
132.922975
 71
     1
 72
     1
  1
10\P
 73
     1
 44
1.0
1001
ACAD
1000
ACAD_MTEXT_DEFINED_HEIGHT_BEGIN
1070
    46
1040
78.545394
1000
ACAD_MTEXT_DEFINED_HEIGHT_END
  0
MTEXT
  5
B72
330
1F
100
AcDbEntity
  8
0
 48
100.0
100
AcDbMText
 10
1023.261522
 20
469.46182
 30
0.0
 40
30.0
 41
132.922975
 71
     1
 72
     1
  1
11\P
 73
     1
 44
1.0
1001
ACAD
1000
ACAD_MTEXT_DEFINED_HEIGHT_BEGIN
1070
    46
1040
78.545394
1000
ACAD_MTEXT_DEFINED_HEIGHT_END
  0
LINE
  5
B74
330
1F
100
AcDbEntity
  8
0
 62
     3
 48
100.0
100
AcDbLine
 10
847.499788
 20
401.994892
 30
0.0
 11
847.499788
 21
191.994892
 31
0.0
  0
MTEXT
  5
B75
330
1F
100
AcDbEntity
  8
0
 48
100.0
100
AcDbMText
 10
826.898669
 20
187.981115
 30
0.0
 40
15.0
 41
62.657074
 71
     1
 72
     1
  1
{\C3;CG a 210mm dal vertice}
 73
     1
 44
1.0
1001
ACAD
1000
ACAD_MTEXT_DEFINED_HEIGHT_BEGIN
1070
    46
1040
23.827338
1000
ACAD_MTEXT_DEFINED_HEIGHT_END
  0
ENDSEC
  0
SECTION
  2
OBJECTS
  0
DICTIONARY
  5
C
330
0
100
AcDbDictionary
281
     1
  3
ACAD_DETAILVIEWSTYLE
350
89
  3
ACAD_GROUP
350
D
  3
ACAD_IMAGE_DICT
350
246
  3
ACAD_LAYOUT
350
1A
  3
ACAD_MATERIAL
350
43
  3
ACAD_MLEADERSTYLE
350
88
  3
ACAD_MLINESTYLE
350
17
  3
ACAD_PLOTSETTINGS
350
19
  3
ACAD_PLOTSTYLENAME
350
E
  3
ACAD_SCALELIST
350
47
  3
ACAD_SECTIONVIEWSTYLE
350
8A
  3
ACAD_TABLESTYLE
350
6A
  3
ACAD_VISUALSTYLE
350
2A
  3
ACDB_RECOMPOSE_DATA
350
C30
  3
AcDbVariableDictionary
350
86
  3
MCS_STREAM_DICT
350
6C
  0
DICTIONARY
  5
BF5
330
8
100
AcDbDictionary
280
     1
281
     1
  3
ACAD_XREC_ROUNDTRIP
360
BF6
  0
DICTIONARY
  5
73
330
1F
100
AcDbDictionary
280
     1
281
     1
  3
ACAD_SORTENTS
360
74
  0
DICTIONARY
  5
570
330
563
100
AcDbDictionary
280
     1
281
     1
  3
MC_XOBJECT1
360
571
  0
DICTIONARY
  5
74D
330
73F
100
AcDbDictionary
280
     1
281
     1
  3
MC_XOBJECT1
360
74E
  0
DICTIONARY
  5
781
330
772
100
AcDbDictionary
280
     1
281
     1
  3
MC_XOBJECT1
360
782
  0
DICTIONARY
  5
7B7
330
7A8
100
AcDbDictionary
280
     1
281
     1
  3
MC_XOBJECT1
360
7B8
  0
DICTIONARY
  5
804
330
7F7
100
AcDbDictionary
280
     1
281
     1
  3
MC_XOBJECT1
360
805
  0
DICTIONARY
  5
816
330
806
100
AcDbDictionary
280
     1
281
     1
  3
MC_XOBJECT1
360
817
  0
DICTIONARY
  5
968
330
959
100
AcDbDictionary
280
     1
281
     1
  3
MC_XOBJECT1
360
969
  0
DICTIONARY
  5
98E
330
97E
100
AcDbDictionary
280
     1
281
     1
  3
MC_XOBJECT1
360
98F
  0
DICTIONARY
  5
89
102
{ACAD_REACTORS
330
C
102
}
330
C
100
AcDbDictionary
281
     1
  0
DICTIONARY
  5
D
102
{ACAD_REACTORS
330
C
102
}
330
C
100
AcDbDictionary
281
     1
  0
DICTIONARY
  5
246
102
{ACAD_REACTORS
330
C
102
}
330
C
100
AcDbDictionary
281
     1
  0
DICTIONARY
  5
1A
102
{ACAD_REACTORS
330
C
102
}
330
C
100
AcDbDictionary
281
     1
  3
Layout1
350
1E
  3
Layout2
350
26
  3
Model
350
22
  0
DICTIONARY
  5
43
102
{ACAD_REACTORS
330
C
102
}
330
C
100
AcDbDictionary
281
     1
  3
ByBlock
350
45
  3
ByLayer
350
44
  3
Global
350
46
  0
DICTIONARY
  5
88
102
{ACAD_REACTORS
330
C
102
}
330
C
100
AcDbDictionary
281
     1
  0
DICTIONARY
  5
17
102
{ACAD_REACTORS
330
C
102
}
330
C
100
AcDbDictionary
281
     1
  3
Standard
350
18
  0
DICTIONARY
  5
19
102
{ACAD_REACTORS
330
C
102
}
330
C
100
AcDbDictionary
281
     1
  0
ACDBDICTIONARYWDFLT
  5
E
102
{ACAD_REACTORS
330
C
102
}
330
C
100
AcDbDictionary
281
     1
  3
Normal
350
F
100
AcDbDictionaryWithDefault
340
F
  0
DICTIONARY
  5
47
102
{ACAD_REACTORS
330
C
102
}
330
C
100
AcDbDictionary
281
     1
  3
A0
350
48
  3
A1
350
49
  3
A2
350
4A
  3
A3
350
4B
  3
A4
350
4C
  3
A5
350
4D
  3
A6
350
4E
  3
A7
350
4F
  3
A8
350
50
  3
A9
350
51
  3
B0
350
52
  3
B1
350
53
  3
B2
350
54
  3
B3
350
55
  3
B4
350
56
  3
B5
350
57
  3
B6
350
58
  3
B7
350
59
  3
B8
350
5A
  3
B9
350
5B
  3
C0
350
5C
  3
C1
350
5D
  3
C2
350
5E
  3
C3
350
5F
  3
C4
350
60
  3
C5
350
61
  3
C6
350
62
  3
C7
350
63
  3
C8
350
64
  3
C9
350
65
  3
D0
350
66
  3
D1
350
67
  3
D2
350
68
  0
DICTIONARY
  5
8A
102
{ACAD_REACTORS
330
C
102
}
330
C
100
AcDbDictionary
281
     1
  0
DICTIONARY
  5
6A
102
{ACAD_REACTORS
330
C
102
}
330
C
100
AcDbDictionary
281
     1
  3
Standard
350
6B
  0
DICTIONARY
  5
2A
102
{ACAD_REACTORS
330
C
102
}
330
C
100
AcDbDictionary
281
     1
  3
2dWireframe
350
2F
  3
Basic
350
32
  3
Brighten
350
36
  3
ColorChange
350
3A
  3
Conceptual
350
34
  3
Dim
350
35
  3
EdgeColorOff
350
3D
  3
Facepattern
350
39
  3
Flat
350
2B
  3
FlatWithEdges
350
2C
  3
Gouraud
350
2D
  3
GouraudWithEdges
350
2E
  3
Hidden
350
31
  3
JitterOff
350
3B
  3
Linepattern
350
38
  3
OverhangOff
350
3C
  3
Realistic
350
33
  3
Shaded
350
42
  3
Shaded with edges
350
41
  3
Shades of Gray
350
3E
  3
Sketchy
350
3F
  3
Thicken
350
37
  3
Wireframe
350
30
  3
X-Ray
350
40
  0
XRECORD
  5
C30
102
{ACAD_REACTORS
330
C
102
}
330
C
100
AcDbXrecord
280
     1
 90
        1
330
6B
  0
DICTIONARY
  5
86
102
{ACAD_REACTORS
330
C
102
}
330
C
100
AcDbDictionary
281
     1
  3
CANNOSCALE
350
87
  3
MSLTSCALE
350
249
  3
XCLIPFRAME
350
B73
  0
DICTIONARY
  5
6C
102
{ACAD_REACTORS
330
C
102
}
330
C
100
AcDbDictionary
281
     1
  3
MC_VERSION_DATA
350
84
  3
MCS_DOCUMENT_ID
350
6D
  3
MCS_PARAMS_DATA
350
82
  0
XRECORD
  5
BF6
102
{ACAD_REACTORS
330
BF5
102
}
330
BF5
100
AcDbXrecord
280
     1
102
VTR_0.000_0.000_1.000_1.000_GRIDDISPLAY
 70
     3
102
VTR_0.000_0.000_1.000_1.000_GRIDMAJOR
 70
     5
102
VTR_0.000_0.000_1.000_1.000_DEFAULTLIGHTING
280
     1
102
VTR_0.000_0.000_1.000_1.000_DEFAULTLIGHTINGTYPE
 70
     1
102
VTR_0.000_0.000_1.000_1.000_BRIGHTNESS
141
0.0
102
VTR_0.000_0.000_1.000_1.000_CONTRAST
142
0.0
  0
SORTENTSTABLE
  5
74
102
{ACAD_REACTORS
330
73
102
}
330
73
100
AcDbSortentsTable
330
1F
  0
McDbContainer2
  5
571
102
{ACAD_REACTORS
330
570
102
}
330
570
100
McDbContainer2
  0
McDbContainer2
  5
74E
102
{ACAD_REACTORS
330
74D
102
}
330
74D
100
McDbContainer2
  0
McDbContainer2
  5
782
102
{ACAD_REACTORS
330
781
102
}
330
781
100
McDbContainer2
  0
McDbContainer2
  5
7B8
102
{ACAD_REACTORS
330
7B7
102
}
330
7B7
100
McDbContainer2
  0
McDbContainer2
  5
805
102
{ACAD_REACTORS
330
804
102
}
330
804
100
McDbContainer2
  0
McDbContainer2
  5
817
102
{ACAD_REACTORS
330
816
102
}
330
816
100
McDbContainer2
  0
McDbContainer2
  5
969
102
{ACAD_REACTORS
330
968
102
}
330
968
100
McDbContainer2
  0
McDbContainer2
  5
98F
102
{ACAD_REACTORS
330
98E
102
}
330
98E
100
McDbContainer2
  0
LAYOUT
  5
1E
102
{ACAD_REACTORS
330
1A
102
}
330
1A
100
AcDbPlotSettings
  1

  2
none_device
  4

  6

 40
0.0
 41
0.0
 42
0.0
 43
0.0
 44
0.0
 45
0.0
 46
0.0
 47
0.0
 48
0.0
 49
0.0
140
0.0
141
0.0
142
1.0
143
1.0
 70
   688
 72
     1
 73
     0
 74
     5
  7

 75
    16
 76
     0
 77
     2
 78
   300
147
1.0
148
0.0
149
0.0
100
AcDbLayout
  1
Layout1
 70
     0
 71
     1
 10
0.0
 20
0.0
 11
420.0
 21
297.0
 12
0.0
 22
0.0
 32
0.0
 14
1.000000E+20
 24
1.000000E+20
 34
1.000000E+20
 15
-1.000000E+20
 25
-1.000000E+20
 35
-1.000000E+20
146
0.0
 13
0.0
 23
0.0
 33
0.0
 16
1.0
 26
0.0
 36
0.0
 17
0.0
 27
1.0
 37
0.0
 76
     0
330
1B
  0
LAYOUT
  5
26
102
{ACAD_REACTORS
330
1A
102
}
330
1A
100
AcDbPlotSettings
  1

  2
none_device
  4

  6

 40
0.0
 41
0.0
 42
0.0
 43
0.0
 44
0.0
 45
0.0
 46
0.0
 47
0.0
 48
0.0
 49
0.0
140
0.0
141
0.0
142
1.0
143
1.0
 70
   688
 72
     1
 73
     0
 74
     5
  7

 75
    16
 76
     0
 77
     2
 78
   300
147
1.0
148
0.0
149
0.0
100
AcDbLayout
  1
Layout2
 70
     1
 71
     2
 10
0.0
 20
0.0
 11
0.0
 21
0.0
 12
0.0
 22
0.0
 32
0.0
 14
0.0
 24
0.0
 34
0.0
 15
0.0
 25
0.0
 35
0.0
146
0.0
 13
0.0
 23
0.0
 33
0.0
 16
1.0
 26
0.0
 36
0.0
 17
0.0
 27
1.0
 37
0.0
 76
     0
330
23
  0
LAYOUT
  5
22
102
{ACAD_REACTORS
330
1A
102
}
102
{ACAD_XDICTIONARY
360
BB2
102
}
330
1A
100
AcDbPlotSettings
  1

  2
PDFCreator
  4
USER9
  6

 40
0.0
 41
0.042333
 42
0.0
 43
0.0
 44
210.0
 45
297.0
 46
0.0
 47
0.0
 48
0.0
 49
0.0
140
0.0
141
0.0
142
1.0
143
9.518252
 70
  1712
 72
     1
 73
     1
 74
     0
  7

 75
     0
 76
     0
 77
     2
 78
   300
147
0.105061
148
561.662749
149
422.484113
100
AcDbLayout
  1
Model
 70
     1
 71
     0
 10
0.0
 20
0.0
 11
420.0
 21
297.0
 12
0.0
 22
0.0
 32
0.0
 14
1.000000E+20
 24
1.000000E+20
 34
1.000000E+20
 15
-1.000000E+20
 25
-1.000000E+20
 35
-1.000000E+20
146
0.0
 13
0.0
 23
0.0
 33
0.0
 16
1.0
 26
0.0
 36
0.0
 17
0.0
 27
1.0
 37
0.0
 76
     0
330
1F
331
29
  0
MATERIAL
  5
45
102
{ACAD_REACTORS
330
43
102
}
102
{ACAD_XDICTIONARY
360
BF7
102
}
330
43
100
AcDbMaterial
  1
ByBlock
  0
MATERIAL
  5
44
102
{ACAD_REACTORS
330
43
102
}
102
{ACAD_XDICTIONARY
360
BF9
102
}
330
43
100
AcDbMaterial
  1
ByLayer
  0
MATERIAL
  5
46
102
{ACAD_REACTORS
330
43
102
}
102
{ACAD_XDICTIONARY
360
BFB
102
}
330
43
100
AcDbMaterial
  1
Global
  0
MLINESTYLE
  5
18
102
{ACAD_REACTORS
330
17
102
}
330
17
100
AcDbMlineStyle
  2
Standard
 70
     0
  3

 62
   256
 51
90.0
 52
90.0
 71
     2
 49
0.5
 62
   256
  6
BYLAYER
 49
-0.5
 62
   256
  6
BYLAYER
  0
ACDBPLACEHOLDER
  5
F
102
{ACAD_REACTORS
330
E
102
}
330
E
  0
SCALE
  5
48
102
{ACAD_REACTORS
330
47
102
}
330
47
100
AcDbScale
 70
     0
300
1:1
140
1.0
141
1.0
290
     1
  0
SCALE
  5
49
102
{ACAD_REACTORS
330
47
102
}
330
47
100
AcDbScale
 70
     0
300
1:2
140
1.0
141
2.0
290
     0
  0
SCALE
  5
4A
102
{ACAD_REACTORS
330
47
102
}
330
47
100
AcDbScale
 70
     0
300
1:4
140
1.0
141
4.0
290
     0
  0
SCALE
  5
4B
102
{ACAD_REACTORS
330
47
102
}
330
47
100
AcDbScale
 70
     0
300
1:5
140
1.0
141
5.0
290
     0
  0
SCALE
  5
4C
102
{ACAD_REACTORS
330
47
102
}
330
47
100
AcDbScale
 70
     0
300
1:8
140
1.0
141
8.0
290
     0
  0
SCALE
  5
4D
102
{ACAD_REACTORS
330
47
102
}
330
47
100
AcDbScale
 70
     0
300
1:10
140
1.0
141
10.0
290
     0
  0
SCALE
  5
4E
102
{ACAD_REACTORS
330
47
102
}
330
47
100
AcDbScale
 70
     0
300
1:16
140
1.0
141
16.0
290
     0
  0
SCALE
  5
4F
102
{ACAD_REACTORS
330
47
102
}
330
47
100
AcDbScale
 70
     0
300
1:20
140
1.0
141
20.0
290
     0
  0
SCALE
  5
50
102
{ACAD_REACTORS
330
47
102
}
330
47
100
AcDbScale
 70
     0
300
1:30
140
1.0
141
30.0
290
     0
  0
SCALE
  5
51
102
{ACAD_REACTORS
330
47
102
}
330
47
100
AcDbScale
 70
     0
300
1:40
140
1.0
141
40.0
290
     0
  0
SCALE
  5
52
102
{ACAD_REACTORS
330
47
102
}
330
47
100
AcDbScale
 70
     0
300
1:50
140
1.0
141
50.0
290
     0
  0
SCALE
  5
53
102
{ACAD_REACTORS
330
47
102
}
330
47
100
AcDbScale
 70
     0
300
1:100
140
1.0
141
100.0
290
     0
  0
SCALE
  5
54
102
{ACAD_REACTORS
330
47
102
}
330
47
100
AcDbScale
 70
     0
300
2:1
140
2.0
141
1.0
290
     0
  0
SCALE
  5
55
102
{ACAD_REACTORS
330
47
102
}
330
47
100
AcDbScale
 70
     0
300
4:1
140
4.0
141
1.0
290
     0
  0
SCALE
  5
56
102
{ACAD_REACTORS
330
47
102
}
330
47
100
AcDbScale
 70
     0
300
8:1
140
8.0
141
1.0
290
     0
  0
SCALE
  5
57
102
{ACAD_REACTORS
330
47
102
}
330
47
100
AcDbScale
 70
     0
300
10:1
140
10.0
141
1.0
290
     0
  0
SCALE
  5
58
102
{ACAD_REACTORS
330
47
102
}
330
47
100
AcDbScale
 70
     0
300
100:1
140
100.0
141
1.0
290
     0
  0
SCALE
  5
59
102
{ACAD_REACTORS
330
47
102
}
330
47
100
AcDbScale
 70
     0
300
1/128" = 1'-0"
140
0.007812
141
12.0
290
     0
  0
SCALE
  5
5A
102
{ACAD_REACTORS
330
47
102
}
330
47
100
AcDbScale
 70
     0
300
1/64" = 1'-0"
140
0.015625
141
12.0
290
     0
  0
SCALE
  5
5B
102
{ACAD_REACTORS
330
47
102
}
330
47
100
AcDbScale
 70
     0
300
1/32" = 1'-0"
140
0.03125
141
12.0
290
     0
  0
SCALE
  5
5C
102
{ACAD_REACTORS
330
47
102
}
330
47
100
AcDbScale
 70
     0
300
1/16" = 1'-0"
140
0.0625
141
12.0
290
     0
  0
SCALE
  5
5D
102
{ACAD_REACTORS
330
47
102
}
330
47
100
AcDbScale
 70
     0
300
3/32" = 1'-0"
140
0.09375
141
12.0
290
     0
  0
SCALE
  5
5E
102
{ACAD_REACTORS
330
47
102
}
330
47
100
AcDbScale
 70
     0
300
1/8" = 1'-0"
140
0.125
141
12.0
290
     0
  0
SCALE
  5
5F
102
{ACAD_REACTORS
330
47
102
}
330
47
100
AcDbScale
 70
     0
300
3/16" = 1'-0"
140
0.1875
141
12.0
290
     0
  0
SCALE
  5
60
102
{ACAD_REACTORS
330
47
102
}
330
47
100
AcDbScale
 70
     0
300
1/4" = 1'-0"
140
0.25
141
12.0
290
     0
  0
SCALE
  5
61
102
{ACAD_REACTORS
330
47
102
}
330
47
100
AcDbScale
 70
     0
300
3/8" = 1'-0"
140
0.375
141
12.0
290
     0
  0
SCALE
  5
62
102
{ACAD_REACTORS
330
47
102
}
330
47
100
AcDbScale
 70
     0
300
1/2" = 1'-0"
140
0.5
141
12.0
290
     0
  0
SCALE
  5
63
102
{ACAD_REACTORS
330
47
102
}
330
47
100
AcDbScale
 70
     0
300
3/4" = 1'-0"
140
0.75
141
12.0
290
     0
  0
SCALE
  5
64
102
{ACAD_REACTORS
330
47
102
}
330
47
100
AcDbScale
 70
     0
300
1" = 1'-0"
140
1.0
141
12.0
290
     0
  0
SCALE
  5
65
102
{ACAD_REACTORS
330
47
102
}
330
47
100
AcDbScale
 70
     0
300
1-1/2" = 1'-0"
140
1.5
141
12.0
290
     0
  0
SCALE
  5
66
102
{ACAD_REACTORS
330
47
102
}
330
47
100
AcDbScale
 70
     0
300
3" = 1'-0"
140
3.0
141
12.0
290
     0
  0
SCALE
  5
67
102
{ACAD_REACTORS
330
47
102
}
330
47
100
AcDbScale
 70
     0
300
6" = 1'-0"
140
6.0
141
12.0
290
     0
  0
SCALE
  5
68
102
{ACAD_REACTORS
330
47
102
}
330
47
100
AcDbScale
 70
     0
300
1'-0" = 1'-0"
140
12.0
141
12.0
290
     0
  0
TABLESTYLE
  5
6B
102
{ACAD_REACTORS
330
6A
102
}
102
{ACAD_XDICTIONARY
360
BFD
102
}
330
6A
100
AcDbTableStyle
  3
Standard
 70
     0
 71
     8
 40
1.5
 41
1.5
280
     0
281
     0
  7
Standard
140
4.5
170
     2
 62
     0
 63
   257
283
     0
274
    -2
284
     1
 64
     0
275
    -2
285
     1
 65
     0
276
    -2
286
     1
 66
     0
277
    -2
287
     1
 67
     0
278
    -2
288
     1
 68
     0
279
    -2
289
     1
 69
     0
  7
Standard
140
6.0
170
     5
 62
     0
 63
   257
283
     0
274
    -2
284
     1
 64
     0
275
    -2
285
     1
 65
     0
276
    -2
286
     1
 66
     0
277
    -2
287
     1
 67
     0
278
    -2
288
     1
 68
     0
279
    -2
289
     1
 69
     0
  7
Standard
140
4.5
170
     5
 62
     0
 63
   257
283
     0
274
    -2
284
     1
 64
     0
275
    -2
285
     1
 65
     0
276
    -2
286
     1
 66
     0
277
    -2
287
     1
 67
     0
278
    -2
288
     1
 68
     0
279
    -2
289
     1
 69
     0
  0
VISUALSTYLE
  5
2F
102
{ACAD_REACTORS
330
2A
102
}
102
{ACAD_XDICTIONARY
360
C00
102
}
330
2A
100
AcDbVisualStyle
  2
2dWireframe
 70
     4
 71
     0
 72
     2
 73
     0
 90
        0
 40
0.6
 41
30.0
 62
     5
 63
     7
421
 16777215
 74
     1
 91
        4
 64
     7
 65
   257
 75
     1
175
     1
 42
1.0
 92
        0
 66
   257
 43
1.0
 76
     1
 77
     6
 78
     2
 67
     7
 79
     5
170
     0
171
     0
290
     0
174
     0
 93
        1
 44
0.0
173
     0
291
     0
 45
0.0
1001
ACAD
1000
AcDbSavedByObjectVersion
1070
     0
  0
VISUALSTYLE
  5
32
102
{ACAD_REACTORS
330
2A
102
}
102
{ACAD_XDICTIONARY
360
C02
102
}
330
2A
100
AcDbVisualStyle
  2
Basic
 70
     7
 71
     1
 72
     0
 73
     1
 90
        0
 40
0.6
 41
30.0
 62
     5
 63
     7
421
 16777215
 74
     0
 91
        4
 64
     7
 65
   257
 75
     1
175
     1
 42
1.0
 92
        8
 66
     7
 43
1.0
 76
     1
 77
     6
 78
     2
 67
     7
 79
     5
170
     0
171
     0
290
     0
174
     0
 93
        1
 44
0.0
173
     0
291
     1
 45
0.0
1001
ACAD
1000
AcDbSavedByObjectVersion
1070
     0
  0
VISUALSTYLE
  5
36
102
{ACAD_REACTORS
330
2A
102
}
102
{ACAD_XDICTIONARY
360
C04
102
}
330
2A
100
AcDbVisualStyle
  2
Brighten
 70
    12
 71
     2
 72
     2
 73
     0
 90
        0
 40
0.6
 41
30.0
 62
     5
 63
     7
421
 16777215
 74
     1
 91
        4
 64
     7
 65
   257
 75
     1
175
     1
 42
1.0
 92
        8
 66
     7
 43
1.0
 76
     1
 77
     6
 78
     2
 67
     7
 79
     5
170
     0
171
     0
290
     0
174
     0
 93
        1
 44
50.0
173
     0
291
     1
 45
0.0
1001
ACAD
1000
AcDbSavedByObjectVersion
1070
     0
  0
VISUALSTYLE
  5
3A
102
{ACAD_REACTORS
330
2A
102
}
102
{ACAD_XDICTIONARY
360
C06
102
}
330
2A
100
AcDbVisualStyle
  2
ColorChange
 70
    16
 71
     2
 72
     2
 73
     3
 90
        0
 40
0.6
 41
30.0
 62
     5
 63
     8
421
  8421504
 74
     1
 91
        4
 64
     7
 65
   257
 75
     1
175
     1
 42
1.0
 92
        8
 66
     8
424
  8421504
 43
1.0
 76
     1
 77
     6
 78
     2
 67
     7
 79
     5
170
     0
171
     0
290
     0
174
     0
 93
        1
 44
0.0
173
     0
291
     1
 45
0.0
1001
ACAD
1000
AcDbSavedByObjectVersion
1070
     0
  0
VISUALSTYLE
  5
34
102
{ACAD_REACTORS
330
2A
102
}
102
{ACAD_XDICTIONARY
360
C08
102
}
330
2A
100
AcDbVisualStyle
  2
Conceptual
 70
     9
 71
     3
 72
     2
 73
     0
 90
        0
 40
0.6
 41
30.0
 62
     5
 63
     7
421
 16777215
 74
     2
 91
        2
 64
     7
 65
   257
 75
     1
175
     1
 42
179.0
 92
        8
 66
     7
 43
1.0
 76
     1
 77
     6
 78
     2
 67
     7
 79
     3
170
     0
171
     0
290
     0
174
     0
 93
        1
 44
0.0
173
     0
291
     0
 45
0.0
1001
ACAD
1000
AcDbSavedByObjectVersion
1070
     0
  0
VISUALSTYLE
  5
35
102
{ACAD_REACTORS
330
2A
102
}
102
{ACAD_XDICTIONARY
360
C0A
102
}
330
2A
100
AcDbVisualStyle
  2
Dim
 70
    11
 71
     2
 72
     2
 73
     0
 90
        0
 40
0.6
 41
30.0
 62
     5
 63
     7
421
 16777215
 74
     1
 91
        4
 64
     7
 65
   257
 75
     1
175
     1
 42
1.0
 92
        8
 66
     7
 43
1.0
 76
     1
 77
     6
 78
     2
 67
     7
 79
     5
170
     0
171
     0
290
     0
174
     0
 93
        1
 44
-50.0
173
     0
291
     1
 45
0.0
1001
ACAD
1000
AcDbSavedByObjectVersion
1070
     0
  0
VISUALSTYLE
  5
3D
102
{ACAD_REACTORS
330
2A
102
}
102
{ACAD_XDICTIONARY
360
C0C
102
}
330
2A
100
AcDbVisualStyle
  2
EdgeColorOff
 70
    22
 71
     2
 72
     2
 73
     0
 90
        0
 40
0.6
 41
30.0
 62
     5
 63
     7
421
 16777215
 74
     1
 91
        4
 64
     7
 65
   257
 75
     1
175
     1
 42
1.0
 92
        8
 66
     7
 43
1.0
 76
     1
 77
     6
 78
     2
 67
     7
 79
     5
170
     0
171
     0
290
     0
174
     0
 93
        1
 44
0.0
173
     0
291
     1
 45
0.0
1001
ACAD
1000
AcDbSavedByObjectVersion
1070
     0
  0
VISUALSTYLE
  5
39
102
{ACAD_REACTORS
330
2A
102
}
102
{ACAD_XDICTIONARY
360
C0E
102
}
330
2A
100
AcDbVisualStyle
  2
Facepattern
 70
    15
 71
     2
 72
     2
 73
     0
 90
        0
 40
0.6
 41
30.0
 62
     5
 63
     7
421
 16777215
 74
     1
 91
        4
 64
     7
 65
   257
 75
     1
175
     1
 42
1.0
 92
        8
 66
     7
 43
1.0
 76
     1
 77
     6
 78
     2
 67
     7
 79
     5
170
     0
171
     0
290
     0
174
     0
 93
        1
 44
0.0
173
     0
291
     1
 45
0.0
1001
ACAD
1000
AcDbSavedByObjectVersion
1070
     0
  0
VISUALSTYLE
  5
2B
102
{ACAD_REACTORS
330
2A
102
}
102
{ACAD_XDICTIONARY
360
C10
102
}
330
2A
100
AcDbVisualStyle
  2
Flat
 70
     0
 71
     2
 72
     1
 73
     1
 90
        2
 40
0.6
 41
30.0
 62
     5
 63
     7
421
 16777215
 74
     0
 91
        0
 64
     7
 65
   257
 75
     1
175
     1
 42
1.0
 92
        8
 66
     7
 43
1.0
 76
     1
 77
     6
 78
     2
 67
     7
 79
     5
170
     0
171
     0
290
     0
174
     0
 93
       13
 44
0.0
173
     0
291
     1
 45
0.0
1001
ACAD
1000
AcDbSavedByObjectVersion
1070
     0
  0
VISUALSTYLE
  5
2C
102
{ACAD_REACTORS
330
2A
102
}
102
{ACAD_XDICTIONARY
360
C12
102
}
330
2A
100
AcDbVisualStyle
  2
FlatWithEdges
 70
     1
 71
     2
 72
     1
 73
     1
 90
        2
 40
0.6
 41
30.0
 62
     5
 63
     7
421
 16777215
 74
     1
 91
        0
 64
     7
 65
   257
 75
     1
175
     1
 42
1.0
 92
        0
 66
   257
 43
1.0
 76
     1
 77
     6
 78
     2
 67
     7
 79
     5
170
     0
171
     0
290
     0
174
     0
 93
       13
 44
0.0
173
     0
291
     1
 45
0.0
1001
ACAD
1000
AcDbSavedByObjectVersion
1070
     0
  0
VISUALSTYLE
  5
2D
102
{ACAD_REACTORS
330
2A
102
}
102
{ACAD_XDICTIONARY
360
C14
102
}
330
2A
100
AcDbVisualStyle
  2
Gouraud
 70
     2
 71
     2
 72
     2
 73
     1
 90
        2
 40
0.6
 41
30.0
 62
     5
 63
     7
421
 16777215
 74
     0
 91
        0
 64
     7
 65
   257
 75
     1
175
     1
 42
1.0
 92
        0
 66
     7
 43
1.0
 76
     1
 77
     6
 78
     2
 67
     7
 79
     5
170
     0
171
     0
290
     0
174
     0
 93
       13
 44
0.0
173
     0
291
     1
 45
0.0
1001
ACAD
1000
AcDbSavedByObjectVersion
1070
     0
  0
VISUALSTYLE
  5
2E
102
{ACAD_REACTORS
330
2A
102
}
102
{ACAD_XDICTIONARY
360
C16
102
}
330
2A
100
AcDbVisualStyle
  2
GouraudWithEdges
 70
     3
 71
     2
 72
     2
 73
     1
 90
        2
 40
0.6
 41
30.0
 62
     5
 63
     7
421
 16777215
 74
     1
 91
        0
 64
     7
 65
   257
 75
     1
175
     1
 42
1.0
 92
        0
 66
   257
 43
1.0
 76
     1
 77
     6
 78
     2
 67
     7
 79
     5
170
     0
171
     0
290
     0
174
     0
 93
       13
 44
0.0
173
     0
291
     1
 45
0.0
1001
ACAD
1000
AcDbSavedByObjectVersion
1070
     0
  0
VISUALSTYLE
  5
31
102
{ACAD_REACTORS
330
2A
102
}
102
{ACAD_XDICTIONARY
360
C18
102
}
330
2A
100
AcDbVisualStyle
  2
Hidden
 70
     6
 71
     1
 72
     2
 73
     2
 90
        0
 40
0.6
 41
30.0
 62
     5
 63
     7
421
 16777215
 74
     2
 91
        2
 64
     7
 65
   257
 75
     2
175
     1
 42
40.0
 92
        0
 66
   257
 43
1.0
 76
     1
 77
     6
 78
     2
 67
     7
 79
     3
170
     0
171
     0
290
     0
174
     0
 93
        1
 44
0.0
173
     0
291
     0
 45
0.0
1001
ACAD
1000
AcDbSavedByObjectVersion
1070
     0
  0
VISUALSTYLE
  5
3B
102
{ACAD_REACTORS
330
2A
102
}
102
{ACAD_XDICTIONARY
360
C1A
102
}
330
2A
100
AcDbVisualStyle
  2
JitterOff
 70
    20
 71
     2
 72
     2
 73
     0
 90
        0
 40
0.6
 41
30.0
 62
     5
 63
     7
421
 16777215
 74
     1
 91
        4
 64
     7
 65
   257
 75
     1
175
     1
 42
1.0
 92
       10
 66
     7
 43
1.0
 76
     1
 77
     6
 78
     2
 67
     7
 79
     5
170
     0
171
     0
290
     0
174
     0
 93
        1
 44
0.0
173
     0
291
     1
 45
0.0
1001
ACAD
1000
AcDbSavedByObjectVersion
1070
     0
  0
VISUALSTYLE
  5
38
102
{ACAD_REACTORS
330
2A
102
}
102
{ACAD_XDICTIONARY
360
C1C
102
}
330
2A
100
AcDbVisualStyle
  2
Linepattern
 70
    14
 71
     2
 72
     2
 73
     0
 90
        0
 40
0.6
 41
30.0
 62
     5
 63
     7
421
 16777215
 74
     1
 91
        4
 64
     7
 65
   257
 75
     7
175
     7
 42
1.0
 92
        8
 66
     7
 43
1.0
 76
     1
 77
     6
 78
     2
 67
     7
 79
     5
170
     0
171
     0
290
     0
174
     0
 93
        1
 44
0.0
173
     0
291
     1
 45
0.0
1001
ACAD
1000
AcDbSavedByObjectVersion
1070
     0
  0
VISUALSTYLE
  5
3C
102
{ACAD_REACTORS
330
2A
102
}
102
{ACAD_XDICTIONARY
360
C1E
102
}
330
2A
100
AcDbVisualStyle
  2
OverhangOff
 70
    21
 71
     2
 72
     2
 73
     0
 90
        0
 40
0.6
 41
30.0
 62
     5
 63
     7
421
 16777215
 74
     1
 91
        4
 64
     7
 65
   257
 75
     1
175
     1
 42
1.0
 92
        9
 66
     7
 43
1.0
 76
     1
 77
     6
 78
     2
 67
     7
 79
     5
170
     0
171
     0
290
     0
174
     0
 93
        1
 44
0.0
173
     0
291
     1
 45
0.0
1001
ACAD
1000
AcDbSavedByObjectVersion
1070
     0
  0
VISUALSTYLE
  5
33
102
{ACAD_REACTORS
330
2A
102
}
102
{ACAD_XDICTIONARY
360
C20
102
}
330
2A
100
AcDbVisualStyle
  2
Realistic
 70
     8
 71
     2
 72
     3
 73
     0
 90
        2
 40
0.6
 41
30.0
 62
     5
 63
     7
421
 16777215
 74
     0
 91
        0
 64
     7
 65
   257
 75
     1
175
     1
 42
1.0
 92
        8
 66
   257
 43
1.0
 76
     1
 77
     6
 78
     2
 67
     7
 79
     3
170
     0
171
     0
290
     0
174
     0
 93
       13
 44
0.0
173
     0
291
     0
 45
0.0
1001
ACAD
1000
AcDbSavedByObjectVersion
1070
     0
  0
VISUALSTYLE
  5
42
102
{ACAD_REACTORS
330
2A
102
}
102
{ACAD_XDICTIONARY
360
C22
102
}
330
2A
100
AcDbVisualStyle
  2
Shaded
 70
    27
 71
     2
 72
     2
 73
     1
 90
        2
 40
0.6
 41
30.0
 62
     5
 63
     7
421
 16777215
 74
     0
 91
        4
 64
     7
 65
   257
 75
     1
175
     1
 42
1.0
 92
        8
 66
   257
 43
1.0
 76
     1
 77
     6
 78
     2
 67
     8
425
  7895160
 79
     3
170
     0
171
     0
290
     0
174
     0
 93
        5
 44
0.0
173
     0
291
     0
 45
0.0
1001
ACAD
1000
AcDbSavedByObjectVersion
1070
     0
  0
VISUALSTYLE
  5
41
102
{ACAD_REACTORS
330
2A
102
}
102
{ACAD_XDICTIONARY
360
C24
102
}
330
2A
100
AcDbVisualStyle
  2
Shaded with edges
 70
    26
 71
     2
 72
     2
 73
     1
 90
        2
 40
0.6
 41
30.0
 62
     5
 63
     7
421
 16777215
 74
     1
 91
       10
 64
     7
 65
   257
 75
     2
175
     1
 42
1.0
 92
        8
 66
   257
 43
1.0
 76
     1
 77
     6
 78
     2
 67
     7
 79
     3
170
     0
171
     0
290
     0
174
     0
 93
        5
 44
0.0
173
     0
291
     0
 45
0.0
1001
ACAD
1000
AcDbSavedByObjectVersion
1070
     0
  0
VISUALSTYLE
  5
3E
102
{ACAD_REACTORS
330
2A
102
}
102
{ACAD_XDICTIONARY
360
C26
102
}
330
2A
100
AcDbVisualStyle
  2
Shades of Gray
 70
    23
 71
     2
 72
     2
 73
     3
 90
        0
 40
0.6
 41
30.0
 62
     5
 63
     7
421
 16777215
 74
     2
 91
        2
 64
     7
 65
     7
 75
     1
175
     1
 42
40.0
 92
        8
 66
     7
 43
1.0
 76
     1
 77
     6
 78
     2
 67
     7
 79
     3
170
     0
171
     0
290
     0
174
     0
 93
        1
 44
0.0
173
     0
291
     0
 45
0.0
1001
ACAD
1000
AcDbSavedByObjectVersion
1070
     0
  0
VISUALSTYLE
  5
3F
102
{ACAD_REACTORS
330
2A
102
}
102
{ACAD_XDICTIONARY
360
C28
102
}
330
2A
100
AcDbVisualStyle
  2
Sketchy
 70
    24
 71
     1
 72
     2
 73
     2
 90
        0
 40
0.6
 41
30.0
 62
     5
 63
     7
421
 16777215
 74
     2
 91
        2
 64
     7
 65
     7
 75
     1
175
     1
 42
40.0
 92
       11
 66
     7
 43
1.0
 76
     1
 77
     6
 78
     2
 67
     7
 79
     6
170
     0
171
     0
290
     0
174
     0
 93
        1
 44
0.0
173
     0
291
     0
 45
0.0
1001
ACAD
1000
AcDbSavedByObjectVersion
1070
     0
  0
VISUALSTYLE
  5
37
102
{ACAD_REACTORS
330
2A
102
}
102
{ACAD_XDICTIONARY
360
C2A
102
}
330
2A
100
AcDbVisualStyle
  2
Thicken
 70
    13
 71
     2
 72
     2
 73
     0
 90
        0
 40
0.6
 41
30.0
 62
     5
 63
     7
421
 16777215
 74
     1
 91
        4
 64
     7
 65
   257
 75
     1
175
     1
 42
1.0
 92
       12
 66
     7
 43
1.0
 76
     1
 77
     6
 78
     2
 67
     7
 79
     5
170
     0
171
     0
290
     0
174
     0
 93
        1
 44
0.0
173
     0
291
     1
 45
0.0
1001
ACAD
1000
AcDbSavedByObjectVersion
1070
     0
  0
VISUALSTYLE
  5
30
102
{ACAD_REACTORS
330
2A
102
}
102
{ACAD_XDICTIONARY
360
C2C
102
}
330
2A
100
AcDbVisualStyle
  2
Wireframe
 70
     5
 71
     0
 72
     2
 73
     0
 90
        0
 40
0.6
 41
30.0
 62
     5
 63
     7
421
 16777215
 74
     1
 91
        4
 64
     7
 65
   257
 75
     1
175
     1
 42
1.0
 92
        0
 66
   257
 43
1.0
 76
     1
 77
     6
 78
     2
 67
     7
 79
     3
170
     0
171
     0
290
     0
174
     0
 93
        1
 44
0.0
173
     0
291
     0
 45
0.0
1001
ACAD
1000
AcDbSavedByObjectVersion
1070
     0
  0
VISUALSTYLE
  5
40
102
{ACAD_REACTORS
330
2A
102
}
102
{ACAD_XDICTIONARY
360
C2E
102
}
330
2A
100
AcDbVisualStyle
  2
X-Ray
 70
    25
 71
     2
 72
     2
 73
     1
 90
        1
 40
0.5
 41
30.0
 62
     5
 63
     7
421
 16777215
 74
     1
 91
        0
 64
     7
 65
   257
 75
     1
175
     1
 42
1.0
 92
        8
 66
     7
 43
1.0
 76
     1
 77
     6
 78
     2
 67
     7
 79
     3
170
     0
171
     0
290
     0
174
     0
 93
       13
 44
0.0
173
     0
291
     0
 45
0.0
1001
ACAD
1000
AcDbSavedByObjectVersion
1070
     0
  0
DICTIONARYVAR
  5
87
102
{ACAD_REACTORS
330
86
102
}
330
86
100
DictionaryVariables
280
     0
  1
1:1
  0
DICTIONARYVAR
  5
249
102
{ACAD_REACTORS
330
86
102
}
330
86
100
DictionaryVariables
280
     0
  1
1
  0
DICTIONARYVAR
  5
B73
102
{ACAD_REACTORS
330
86
102
}
330
86
100
DictionaryVariables
280
     0
  1
0
  0
XRECORD
  5
84
102
{ACAD_REACTORS
330
6C
102
}
330
6C
100
AcDbXrecord
280
     1
300
MC_VERSION_DATA
 90
       95
310
0600000002000000570000001C000000E404000000000000000000007801936764E5D8CF7A8393818115C460606066E0646662626666706006F214793899F8DE3171E725E6E53B3BBA2878E6951050AF75FEFFFFFF520032DE0F3057000000
  0
XRECORD
  5
6D
102
{ACAD_REACTORS
330
6C
102
}
330
6C
100
AcDbXrecord
280
     1
300
MCS_DOCUMENT_ID
 90
       60
310
0600000002000000150000001C000000E404000000000000000000007801E3AD5868FA59B6CBD3719A15FB6DB198D89EFF4000005F1A0A8915000000
  0
XRECORD
  5
82
102
{ACAD_REACTORS
330
6C
102
}
330
6C
100
AcDbXrecord
280
     1
300
MCS_PARAMS_DATA
 90
     2561
310
0600000002000000534C00001C000000E404000000000000000000007801CD5C5B8C5D55193E67AF3373664FEF2DA5AD97642241DB538169676AC49068B8E883D892504D8C0F043A452B6DA7C0A845BC804F3E634CD4078D8220BE688C2626BE60B86815C142B91481520AA888478B5C5A6867FCBF7FEFB5D7B7F63ABB3166
310
D6DE332F9CEF3B7BF6F7FFFF5AEBFFD6DA7BCAD8F26193748CB9B365CC75176F3049D79839631261DB2B92E1A46D9254D8843E77DC67734B8B408BAE322DF7EBF925EDF718F379480CB1C42248B4CD50ABD59A531D9F10318F50459F816C89116D662880DD0860980318C9029895A4E5468444DA21D525085186A2584092DB
310
03B911969BF792EE85C44696588A8CCCB054547E3A1FD1BC024EB22B739A634022D390947C4B24653DDDF4285F5FEF28CF402EE121D05136E76AE98BCF76E108EF160E40B17014D88563CEA592EE0B24F2F24FE8CFB10FF3283BCE8D72C1F1283B9246994837CA96A4909E5D2459C76D174720D1416D31A5652276F15F5968
310
14C6D1EC1A734A16B05C2A19E7174947437B72083912929B5844B77B1AB75BC36399AFEB3C024222E5906A11841843512BE08A640277EB8E261B139326CBFBC9924BA7F7BE6F66EC869DFB765FBD63679A8CF493A12BBEB077663AFBB8757A66C7E78C3986D8DEC5B19D93DFE79D49B2214D56F79395E3FBB78C5F38B979E2
310
E22DE3E39B3FFAC189C90BB570CBF30B47E4C2DEE37373D26B257C8FBD07ACA6E1D1772B8D743CFAB68C96B43CFA66A1A99A5B3AE56AEA6A102B282C059F2514CB6B000580AC036ED84B1544E2974CEFD977F5CCAE6B76EDDE3573D3D89EE92929E3703F319FDE79639A0CF59364EBB4311F403CE35CC165284C9A26DD7ED2
310
D976EDB5631AD8A892BD97912382CBF1539A3326554E1CC88A2041E6C4AF334202CD89BB845891B86132BD6F0B93C96DBA60D378F169D298D78C04E799A3DEA46D3AB82B0AE6611B57FEBD168E2FD0B6E21336AEEC57A8B4AF07D2294AD0964AB55499A10813545DC618330F8BAAC324FA4613A2279A107DB309D1934D88AE
310
C202F3E6B01BFA6813E9ED26327DAB09D153101DB47D4D2ED2EA5A8B1124ABD4215DA404D99D2E920D882CD1E25B5AA1A72BE5D6797282486E5DE622F68602590E90E4D691DC6CBD722DCCD581C55CEF652788B25BEF672790B303A4ECD6537673F566D7AECC2ECAD89D552937E51553101573CA2FA6402E262015738A8A69
310
2AE5A26497D42B7736E4E454EE4EE276A7AAB574404A59005DE30EA19084A48E1651199FE8560889F9BBDF17E084644F40DB6A412404E484E453B1777BB73E45E08CB43D98F726343D3264A78722D7B832584C8F1CDAE9014872C791977722B372596284482E4FCD7DE966A3DC3F4FAEF896E40E0772F9E9EC7BDFC5CF01EF
310
74E638912E5FA7F90624B20E49C9BD445248A39842635C701D8BEE461DD8E2B384603FAB740120E9801DCAEE4692580909EF00B846F7CD69B2AC9F2CBEE4CAAB3EB9F58ACBB76DDF7ED9A5AAA95BD1B4F7BC6E664537C78F00AB764EFC5609E8E7C4CF334262C8891F0841714CADD5491C9C12EDB3293C787A3FAEF162D5E4
310
E6F3D9D679901838E786347F3B7104D19C93BD129693FBD29B73F26DD101650A0E51D6E3957251A6F8172BE5A264F7A5402E9FEAD9838847BD15E538B7A20A8E579423694511E9569425A9E09B8290DCA0A159129A8FF1BDA05EB9F3EB95DB5FAFDC4D815CE3D3E9CB41483481E67F3ADD5CAFDC57EA95FB6ABD725F0BE41A
310
9F4E3F5A13DDE06E44D6DED99E5EB2CCAAC7F984B4418FD056EC33E8C325469A3033D4816710C0C0035B944DFF3EC88DF0166A75BEBF59D24F463FB6EDCAED639BCF9F189FE4DDCD0BD8ABC0DFF3ADCA21DDBBD023C37B95A0DDCD2F32C2ED6E7E2804257D3B06D6ABBADE5A1EE1D937661EB6D2F9F76E63658942BA20AC74
310
4690F44F20EDBD5A8ADAA276A0DE22775A9EE4CBA642C2B2725D6FCB24DB38DE3209444EEE5A6FCBD4A57CEE463E037768F282816E21881C5C7E81E504B21C20452A77D18D25F69C3FAD57EE8E4AB9283BB41FD72B7767BD727755CA45D95D5F8FA98F498867EE3C150DCDA71BCA17954C872E7D1DE1C73DEEBC0109AF2F71
310
D7D6247C62BEDDE04D04509F1B9C809CE706798B3F7E92DFCEA4BDA38A6D1F4E7B07815D1F4E7BF72851F4E1B4F7B38CB07D38ED7D5F081ACD9390F6FA703EF2CDBDE27F6BE185F436426A72429E4200E207EEA99D374C27BC336B3674E064A694AFD3D9129098312129B3A644D2CC391D84646DD26F3382C8F1FEEFE760B3
310
9572F4D735F21C03AFEA9D631BDF6005B2C10292C172439C0BE44A95D02E1470310BDECA7A34CD015BF0281568D72B97D42B6702B97C2CEDD3191E5FC7B9F12D385E508EA40545A45B5096A405752FA65C5C63BD0F124DF6B1FB11407DC6FA00E40619EB775EF58DF59B8A657473E3DD0FCCC6FA5925C8583F9511CE582F13
310
8246F377905E58C6FAFB60F4BDE39D5880876D35EC61AE38695AA2A84641D86A04C7BD03905E58FEF5872024DB4EA3F8D71F2BE5A274EF0703B9C0AB06587ED40DC39F82906CC1A354E0A14CEECCE79E87FF978BFE5CBEA86415B4EA0FE2D2B83DFC114834D9C31F4500F5F5F043901BD4C30FBDE2F7F0FB14DBAE95F67E09
310
CC3DFC76258AAE95F66ECB08DBB5D2DEAD42D0683E06E985D5C31F6F7AF49F40000BAB933F1984641B4B944E7EB8522E4A1F7B2A906BBC93FF2508C9163C4A059EAE576E32381A44CD6E4B2057B297FA4F22CFA0E0715DEC594834E9624710407D2EF61CE406B9D8D2977C179B7D11D8B9581F985DEC1925C8C51ECC08E762
310
BF11825CEC28A4AB5D6CF1807FC5034E42F01A8D707CD4CD1E32814428C19578AE522229A4E7CF1C5213FFB0E81842F27CCDAEFA2826F202E49A9CFF2F06F97AC3D5C413C5978290A20EC1D7D178CFE367AAF3FE775BB742A26A944F6963A7171942C8A2F3085D713E83E5566264AD31430BED160430A8CBCD76545D0BDC36
310
4022ED90EA12842843512C20C9FD152318D738FED6F4C2F93B021854D224CA5F0ABC0CB941C6F1D811DF38EE57EC8CE357C06C1C772841C6F1AD8C70C6F10D216834FF01E985651CAF9C39A4268CE39F08A96A8DD7F1A72B7D04509F73FD2B906BDC38FE1D84A4CD49DE0645F1EEE39572A3AEA98AB820DB5415B9A69AC1A2
310
A9E6D03655405A86AF56CA45396DFDA7522ECA5FB2BC56291765EC3A30C4B80E357426D3AFA3210C57997E1C87EA426E90434D1CF61DEA1CC5CEA15601B343254A90431D7F1257E02C91BF97794E085A1A2390AE76A826EC206D7AF447118067078DF7E745414851FBF3E24AB9280D734920D778C1970621D98247A9C0B27A
310
E596D72BB72290CBC7D7BEC357D30F38E973654E7B5D40A2DF85A4F4BC12497DEFF220243BBE51FE1EF313815C29B4FA2BB01221C5F5F155906872637F1602A8EFA4B91A72837CFCBA83BE8F7F46B1F3F18F03B38F7F4809F2F10D19E17C7CAD10349FCF86F4C2F2F1354D8FFE5A04B0B07C7C5D10926D3B31F6EA38BCB57B
310
4B1F90C9A5FF9792D9A177FC17F5D79B5D534C0000
  0
DICTIONARY
  5
BB2
330
22
100
AcDbDictionary
280
     1
281
     1
  3
CSD_PLOT_CONFIG
360
BB3
  0
DICTIONARY
  5
BF7
330
45
100
AcDbDictionary
280
     1
281
     1
  3
ACAD_XREC_ROUNDTRIP
360
BF8
  0
DICTIONARY
  5
BF9
330
44
100
AcDbDictionary
280
     1
281
     1
  3
ACAD_XREC_ROUNDTRIP
360
BFA
  0
DICTIONARY
  5
BFB
330
46
100
AcDbDictionary
280
     1
281
     1
  3
ACAD_XREC_ROUNDTRIP
360
BFC
  0
DICTIONARY
  5
BFD
330
6B
100
AcDbDictionary
280
     1
281
     1
  3
ACAD_ROUNDTRIP_2008_TABLESTYLE_CELLSTYLEMAP
360
BFF
  3
ACAD_XREC_ROUNDTRIP
360
BFE
  0
DICTIONARY
  5
C00
330
2F
100
AcDbDictionary
280
     1
281
     1
  3
ACAD_XREC_ROUNDTRIP
360
C01
  0
DICTIONARY
  5
C02
330
32
100
AcDbDictionary
280
     1
281
     1
  3
ACAD_XREC_ROUNDTRIP
360
C03
  0
DICTIONARY
  5
C04
330
36
100
AcDbDictionary
280
     1
281
     1
  3
ACAD_XREC_ROUNDTRIP
360
C05
  0
DICTIONARY
  5
C06
330
3A
100
AcDbDictionary
280
     1
281
     1
  3
ACAD_XREC_ROUNDTRIP
360
C07
  0
DICTIONARY
  5
C08
330
34
100
AcDbDictionary
280
     1
281
     1
  3
ACAD_XREC_ROUNDTRIP
360
C09
  0
DICTIONARY
  5
C0A
330
35
100
AcDbDictionary
280
     1
281
     1
  3
ACAD_XREC_ROUNDTRIP
360
C0B
  0
DICTIONARY
  5
C0C
330
3D
100
AcDbDictionary
280
     1
281
     1
  3
ACAD_XREC_ROUNDTRIP
360
C0D
  0
DICTIONARY
  5
C0E
330
39
100
AcDbDictionary
280
     1
281
     1
  3
ACAD_XREC_ROUNDTRIP
360
C0F
  0
DICTIONARY
  5
C10
330
2B
100
AcDbDictionary
280
     1
281
     1
  3
ACAD_XREC_ROUNDTRIP
360
C11
  0
DICTIONARY
  5
C12
330
2C
100
AcDbDictionary
280
     1
281
     1
  3
ACAD_XREC_ROUNDTRIP
360
C13
  0
DICTIONARY
  5
C14
330
2D
100
AcDbDictionary
280
     1
281
     1
  3
ACAD_XREC_ROUNDTRIP
360
C15
  0
DICTIONARY
  5
C16
330
2E
100
AcDbDictionary
280
     1
281
     1
  3
ACAD_XREC_ROUNDTRIP
360
C17
  0
DICTIONARY
  5
C18
330
31
100
AcDbDictionary
280
     1
281
     1
  3
ACAD_XREC_ROUNDTRIP
360
C19
  0
DICTIONARY
  5
C1A
330
3B
100
AcDbDictionary
280
     1
281
     1
  3
ACAD_XREC_ROUNDTRIP
360
C1B
  0
DICTIONARY
  5
C1C
330
38
100
AcDbDictionary
280
     1
281
     1
  3
ACAD_XREC_ROUNDTRIP
360
C1D
  0
DICTIONARY
  5
C1E
330
3C
100
AcDbDictionary
280
     1
281
     1
  3
ACAD_XREC_ROUNDTRIP
360
C1F
  0
DICTIONARY
  5
C20
330
33
100
AcDbDictionary
280
     1
281
     1
  3
ACAD_XREC_ROUNDTRIP
360
C21
  0
DICTIONARY
  5
C22
330
42
100
AcDbDictionary
280
     1
281
     1
  3
ACAD_XREC_ROUNDTRIP
360
C23
  0
DICTIONARY
  5
C24
330
41
100
AcDbDictionary
280
     1
281
     1
  3
ACAD_XREC_ROUNDTRIP
360
C25
  0
DICTIONARY
  5
C26
330
3E
100
AcDbDictionary
280
     1
281
     1
  3
ACAD_XREC_ROUNDTRIP
360
C27
  0
DICTIONARY
  5
C28
330
3F
100
AcDbDictionary
280
     1
281
     1
  3
ACAD_XREC_ROUNDTRIP
360
C29
  0
DICTIONARY
  5
C2A
330
37
100
AcDbDictionary
280
     1
281
     1
  3
ACAD_XREC_ROUNDTRIP
360
C2B
  0
DICTIONARY
  5
C2C
330
30
100
AcDbDictionary
280
     1
281
     1
  3
ACAD_XREC_ROUNDTRIP
360
C2D
  0
DICTIONARY
  5
C2E
330
40
100
AcDbDictionary
280
     1
281
     1
  3
ACAD_XREC_ROUNDTRIP
360
C2F
  0
LAYOUTPRINTCONFIG
  5
BB3
102
{ACAD_REACTORS
330
BB2
102
}
330
BB2
100
AcDbEntity
  8
0
 92
        8
310
0800000000000000
100
CAcLayoutPrintConfig
 93
        0
  0
XRECORD
  5
BF8
102
{ACAD_REACTORS
330
BF7
102
}
330
BF7
100
AcDbXrecord
280
     1
102
MATERIAL
148
0.0
149
0.0
149
0.0
 93
        0
 94
      127
282
     0
 72
     1
 77
     1
171
     1
175
     1
179
     1
273
     0
  0
XRECORD
  5
BFA
102
{ACAD_REACTORS
330
BF9
102
}
330
BF9
100
AcDbXrecord
280
     1
102
MATERIAL
148
0.0
149
0.0
149
0.0
 93
        0
 94
      127
282
     0
 72
     1
 77
     1
171
     1
175
     1
179
     1
273
     0
  0
XRECORD
  5
BFC
102
{ACAD_REACTORS
330
BFB
102
}
330
BFB
100
AcDbXrecord
280
     1
102
MATERIAL
148
0.0
149
0.0
149
0.0
 93
        0
 94
      127
282
     0
 72
     1
 77
     1
171
     1
175
     1
179
     1
273
     0
  0
CELLSTYLEMAP
  5
BFF
102
{ACAD_REACTORS
330
BFD
102
}
330
BFD
100
AcDbCellStyleMap
 90
        3
300
CELLSTYLE
  1
TABLEFORMAT_BEGIN
 90
        5
170
     1
 91
        0
 92
        0
 62
   257
 93
        1
300
CONTENTFORMAT
  1
CONTENTFORMAT_BEGIN
 90
        0
 91
        0
 92
        4
 93
        0
300

 40
0.0
140
1.0
 94
        5
 62
     0
340
11
144
6.0
309
CONTENTFORMAT_END
171
     1
301
MARGIN
  1
CELLMARGIN_BEGIN
 40
1.5
 40
1.5
 40
1.5
 40
1.5
 40
4.5
 40
4.5
309
CELLMARGIN_END
 94
        6
 95
        1
302
GRIDFORMAT
  1
GRIDFORMAT_BEGIN
 90
        0
 91
        1
 62
     0
 92
       -2
340
14
 93
        0
 40
1.125
309
GRIDFORMAT_END
 95
        2
302
GRIDFORMAT
  1
GRIDFORMAT_BEGIN
 90
        0
 91
        1
 62
     0
 92
       -2
340
14
 93
        0
 40
1.125
309
GRIDFORMAT_END
 95
        4
302
GRIDFORMAT
  1
GRIDFORMAT_BEGIN
 90
        0
 91
        1
 62
     0
 92
       -2
340
14
 93
        0
 40
1.125
309
GRIDFORMAT_END
 95
        8
302
GRIDFORMAT
  1
GRIDFORMAT_BEGIN
 90
        0
 91
        1
 62
     0
 92
       -2
340
14
 93
        0
 40
1.125
309
GRIDFORMAT_END
 95
       16
302
GRIDFORMAT
  1
GRIDFORMAT_BEGIN
 90
        0
 91
        1
 62
     0
 92
       -2
340
14
 93
        0
 40
1.125
309
GRIDFORMAT_END
 95
       32
302
GRIDFORMAT
  1
GRIDFORMAT_BEGIN
 90
        0
 91
        1
 62
     0
 92
       -2
340
14
 93
        0
 40
1.125
309
GRIDFORMAT_END
309
TABLEFORMAT_END
  1
CELLSTYLE_BEGIN
 90
        1
 91
        1
300
_TITLE
309
CELLSTYLE_END
300
CELLSTYLE
  1
TABLEFORMAT_BEGIN
 90
        5
170
     1
 91
        0
 92
        0
 62
   257
 93
        1
300
CONTENTFORMAT
  1
CONTENTFORMAT_BEGIN
 90
        0
 91
        0
 92
        4
 93
        0
300

 40
0.0
140
1.0
 94
        5
 62
     0
340
11
144
4.5
309
CONTENTFORMAT_END
171
     1
301
MARGIN
  1
CELLMARGIN_BEGIN
 40
1.5
 40
1.5
 40
1.5
 40
1.5
 40
4.5
 40
4.5
309
CELLMARGIN_END
 94
        6
 95
        1
302
GRIDFORMAT
  1
GRIDFORMAT_BEGIN
 90
        0
 91
        1
 62
     0
 92
       -2
340
14
 93
        0
 40
1.125
309
GRIDFORMAT_END
 95
        2
302
GRIDFORMAT
  1
GRIDFORMAT_BEGIN
 90
        0
 91
        1
 62
     0
 92
       -2
340
14
 93
        0
 40
1.125
309
GRIDFORMAT_END
 95
        4
302
GRIDFORMAT
  1
GRIDFORMAT_BEGIN
 90
        0
 91
        1
 62
     0
 92
       -2
340
14
 93
        0
 40
1.125
309
GRIDFORMAT_END
 95
        8
302
GRIDFORMAT
  1
GRIDFORMAT_BEGIN
 90
        0
 91
        1
 62
     0
 92
       -2
340
14
 93
        0
 40
1.125
309
GRIDFORMAT_END
 95
       16
302
GRIDFORMAT
  1
GRIDFORMAT_BEGIN
 90
        0
 91
        1
 62
     0
 92
       -2
340
14
 93
        0
 40
1.125
309
GRIDFORMAT_END
 95
       32
302
GRIDFORMAT
  1
GRIDFORMAT_BEGIN
 90
        0
 91
        1
 62
     0
 92
       -2
340
14
 93
        0
 40
1.125
309
GRIDFORMAT_END
309
TABLEFORMAT_END
  1
CELLSTYLE_BEGIN
 90
        2
 91
        1
300
_HEADER
309
CELLSTYLE_END
300
CELLSTYLE
  1
TABLEFORMAT_BEGIN
 90
        5
170
     1
 91
        0
 92
        0
 62
   257
 93
        1
300
CONTENTFORMAT
  1
CONTENTFORMAT_BEGIN
 90
        0
 91
        0
 92
        4
 93
        0
300

 40
0.0
140
1.0
 94
        2
 62
     0
340
11
144
4.5
309
CONTENTFORMAT_END
171
     1
301
MARGIN
  1
CELLMARGIN_BEGIN
 40
1.5
 40
1.5
 40
1.5
 40
1.5
 40
4.5
 40
4.5
309
CELLMARGIN_END
 94
        6
 95
        1
302
GRIDFORMAT
  1
GRIDFORMAT_BEGIN
 90
        0
 91
        1
 62
     0
 92
       -2
340
14
 93
        0
 40
1.125
309
GRIDFORMAT_END
 95
        2
302
GRIDFORMAT
  1
GRIDFORMAT_BEGIN
 90
        0
 91
        1
 62
     0
 92
       -2
340
14
 93
        0
 40
1.125
309
GRIDFORMAT_END
 95
        4
302
GRIDFORMAT
  1
GRIDFORMAT_BEGIN
 90
        0
 91
        1
 62
     0
 92
       -2
340
14
 93
        0
 40
1.125
309
GRIDFORMAT_END
 95
        8
302
GRIDFORMAT
  1
GRIDFORMAT_BEGIN
 90
        0
 91
        1
 62
     0
 92
       -2
340
14
 93
        0
 40
1.125
309
GRIDFORMAT_END
 95
       16
302
GRIDFORMAT
  1
GRIDFORMAT_BEGIN
 90
        0
 91
        1
 62
     0
 92
       -2
340
14
 93
        0
 40
1.125
309
GRIDFORMAT_END
 95
       32
302
GRIDFORMAT
  1
GRIDFORMAT_BEGIN
 90
        0
 91
        1
 62
     0
 92
       -2
340
14
 93
        0
 40
1.125
309
GRIDFORMAT_END
309
TABLEFORMAT_END
  1
CELLSTYLE_BEGIN
 90
        3
 91
        2
300
_DATA
309
CELLSTYLE_END
  0
XRECORD
  5
BFE
102
{ACAD_REACTORS
330
BFD
102
}
330
BFD
100
AcDbXrecord
280
     1
102
ACAD_ROUNDTRIP_PRE2007_TABLESTYLE
 90
        4
 91
        0
  1

 92
        4
 93
        0
  2

 94
        4
 95
        0
  3

  0
XRECORD
  5
C01
102
{ACAD_REACTORS
330
C00
102
}
330
C00
100
AcDbXrecord
280
     1
102
RTVSPropertyOp0
 70
     1
102
RTVSPropertyOp1
 70
     1
102
RTVSPropertyOp2
 70
     1
102
RTVSPropertyOp3
 70
     1
102
RTVSPropertyOp4
 70
     1
102
RTVSPropertyOp5
 70
     1
102
RTVSPropertyOp6
 70
     1
102
RTVSPropertyOp7
 70
     1
102
RTVSPropertyOp8
 70
     1
102
RTVSPropertyOp9
 70
     1
102
RTVSPropertyOp10
 70
     1
102
RTVSPropertyOp11
 70
     1
102
RTVSPropertyOp12
 70
     1
102
RTVSPropertyOp13
 70
     1
102
RTVSPropertyOp14
 70
     1
102
RTVSPropertyOp15
 70
     1
102
RTVSPropertyOp16
 70
     1
102
RTVSPropertyOp17
 70
     1
102
RTVSPropertyOp18
 70
     1
102
RTVSPropertyOp19
 70
     1
102
RTVSPropertyOp20
 70
     1
102
RTVSPropertyOp21
 70
     1
102
RTVSPropertyOp22
 70
     1
102
RTVSPropertyOp23
 70
     1
102
RTVSPropertyOp24
 70
     1
102
RTVSPropertyOp25
 70
     1
102
RTVSPropertyOp26
 70
     1
102
RTVSPropertyOp27
 70
     1
102
RTVSPropertyOp28
 70
     1
102
RTVSPropertyOp29
 70
     1
102
RTVSPropertyOp30
 70
     1
102
RTVSPropertyOp31
 70
     1
102
RTVSPropertyOp32
 70
     1
102
RTVSPropertyOp33
 70
     1
102
RTVSPropertyOp34
 70
     1
102
RTVSPropertyOp35
 70
     1
102
RTVSPropertyOp36
 70
     1
102
RTVSPropertyOp37
 70
     1
102
RTVSPropertyOp38
 70
     1
102
RTVSPropertyOp39
 70
     1
102
RTVSPropertyOp40
 70
     1
102
RTVSPropertyOp41
 70
     1
102
RTVSPropertyOp42
 70
     1
102
RTVSPropertyOp43
 70
     1
102
RTVSPropertyOp44
 70
     1
102
RTVSPropertyOp45
 70
     1
102
RTVSPropertyOp46
 70
     1
102
RTVSPropertyOp47
 70
     1
102
RTVSPropertyOp48
 70
     1
102
RTVSPropertyOp49
 70
     1
102
RTVSPropertyOp50
 70
     1
102
RTVSPropertyOp51
 70
     0
102
RTVSPropertyOp52
 70
     0
102
RTVSPropertyOp53
 70
     1
102
RTVSPropertyOp54
 70
     1
102
RTVSPropertyOp55
 70
     1
102
RTVSPropertyOp56
 70
     1
102
RTVSPropertyOp57
 70
     1
102
RTVSPost2010Prop28
280
     1
102
RTVSPost2010PropOp28
 70
     1
102
RTVSPost2010Prop29
280
     1
102
RTVSPost2010PropOp29
 70
     1
102
RTVSPost2010Prop30
280
     0
102
RTVSPost2010PropOp30
 70
     1
102
RTVSPost2010Prop31
280
     0
102
RTVSPost2010PropOp31
 70
     1
102
RTVSPost2010Prop32
280
     0
102
RTVSPost2010PropOp32
 70
     1
102
RTVSPost2010Prop33
280
     0
102
RTVSPost2010PropOp33
 70
     1
102
RTVSPost2010Prop34
280
     0
102
RTVSPost2010PropOp34
 70
     1
102
RTVSPost2010Prop35
280
     0
102
RTVSPost2010PropOp35
 70
     1
102
RTVSPost2010Prop36
280
     0
102
RTVSPost2010PropOp36
 70
     1
102
RTVSPost2010Prop37
 90
       50
102
RTVSPost2010PropOp37
 70
     1
102
RTVSPost2010Prop38
140
0.0
102
RTVSPost2010PropOp38
 70
     1
102
RTVSPost2010Prop39
140
1.0
102
RTVSPost2010PropOp39
 70
     1
102
RTVSPost2010Prop40
 90
        0
102
RTVSPost2010PropOp40
 70
     1
102
RTVSPost2010Prop41ColorIndex
 90
       18
102
RTVSPost2010Prop41ColorRGB
 90
        0
102
RTVSPost2010PropOp41
 70
     1
102
RTVSPost2010Prop42
 90
       50
102
RTVSPost2010PropOp42
 70
     1
102
RTVSPost2010Prop43
 90
        3
102
RTVSPost2010PropOp43
 70
     1
102
RTVSPost2010Prop44ColorIndex
 90
        5
102
RTVSPost2010Prop44ColorRGB
 90
      255
102
RTVSPost2010PropOp44
 70
     1
102
RTVSPost2010Prop45
280
     0
102
RTVSPost2010PropOp45
 70
     1
102
RTVSPost2010Prop46
 90
       50
102
RTVSPost2010PropOp46
 70
     1
102
RTVSPost2010Prop47
 90
       50
102
RTVSPost2010PropOp47
 70
     1
102
RTVSPost2010Prop48
 90
       50
102
RTVSPost2010PropOp48
 70
     1
102
RTVSPost2010Prop49
280
     0
102
RTVSPost2010PropOp49
 70
     1
102
RTVSPost2010Prop50
 90
       50
102
RTVSPost2010PropOp50
 70
     1
102
RTVSPost2010Prop51ColorIndex
 90
      256
102
RTVSPost2010Prop51ColorRGB
 90
-16777216
102
RTVSPost2010PropOp51
 70
     0
102
RTVSPost2010Prop52
140
1.0
102
RTVSPost2010PropOp52
 70
     0
102
RTVSPost2010Prop53
 90
        2
102
RTVSPost2010PropOp53
 70
     1
102
RTVSPost2010Prop54
  1
strokes_ogs.tif
102
RTVSPost2010PropOp54
 70
     1
102
RTVSPost2010Prop55
280
     0
102
RTVSPost2010PropOp55
 70
     1
102
RTVSPost2010Prop56
140
1.0
102
RTVSPost2010PropOp56
 70
     1
102
RTVSPost2010Prop57
140
1.0
102
RTVSPost2010PropOp57
 70
     1
  0
XRECORD
  5
C03
102
{ACAD_REACTORS
330
C02
102
}
330
C02
100
AcDbXrecord
280
     1
102
RTVSPropertyOp0
 70
     1
102
RTVSPropertyOp1
 70
     1
102
RTVSPropertyOp2
 70
     1
102
RTVSPropertyOp3
 70
     1
102
RTVSPropertyOp4
 70
     1
102
RTVSPropertyOp5
 70
     1
102
RTVSPropertyOp6
 70
     1
102
RTVSPropertyOp7
 70
     1
102
RTVSPropertyOp8
 70
     1
102
RTVSPropertyOp9
 70
     1
102
RTVSPropertyOp10
 70
     1
102
RTVSPropertyOp11
 70
     1
102
RTVSPropertyOp12
 70
     1
102
RTVSPropertyOp13
 70
     1
102
RTVSPropertyOp14
 70
     1
102
RTVSPropertyOp15
 70
     1
102
RTVSPropertyOp16
 70
     1
102
RTVSPropertyOp17
 70
     1
102
RTVSPropertyOp18
 70
     1
102
RTVSPropertyOp19
 70
     1
102
RTVSPropertyOp20
 70
     1
102
RTVSPropertyOp21
 70
     1
102
RTVSPropertyOp22
 70
     1
102
RTVSPropertyOp23
 70
     1
102
RTVSPropertyOp24
 70
     1
102
RTVSPropertyOp25
 70
     1
102
RTVSPropertyOp26
 70
     1
102
RTVSPropertyOp27
 70
     1
102
RTVSPropertyOp28
 70
     1
102
RTVSPropertyOp29
 70
     1
102
RTVSPropertyOp30
 70
     1
102
RTVSPropertyOp31
 70
     1
102
RTVSPropertyOp32
 70
     1
102
RTVSPropertyOp33
 70
     1
102
RTVSPropertyOp34
 70
     1
102
RTVSPropertyOp35
 70
     1
102
RTVSPropertyOp36
 70
     1
102
RTVSPropertyOp37
 70
     1
102
RTVSPropertyOp38
 70
     1
102
RTVSPropertyOp39
 70
     1
102
RTVSPropertyOp40
 70
     1
102
RTVSPropertyOp41
 70
     1
102
RTVSPropertyOp42
 70
     1
102
RTVSPropertyOp43
 70
     1
102
RTVSPropertyOp44
 70
     1
102
RTVSPropertyOp45
 70
     1
102
RTVSPropertyOp46
 70
     1
102
RTVSPropertyOp47
 70
     1
102
RTVSPropertyOp48
 70
     1
102
RTVSPropertyOp49
 70
     1
102
RTVSPropertyOp50
 70
     1
102
RTVSPropertyOp51
 70
     0
102
RTVSPropertyOp52
 70
     0
102
RTVSPropertyOp53
 70
     1
102
RTVSPropertyOp54
 70
     1
102
RTVSPropertyOp55
 70
     1
102
RTVSPropertyOp56
 70
     1
102
RTVSPropertyOp57
 70
     1
102
RTVSPost2010Prop28
280
     0
102
RTVSPost2010PropOp28
 70
     1
102
RTVSPost2010Prop29
280
     1
102
RTVSPost2010PropOp29
 70
     1
102
RTVSPost2010Prop30
280
     1
102
RTVSPost2010PropOp30
 70
     1
102
RTVSPost2010Prop31
280
     0
102
RTVSPost2010PropOp31
 70
     1
102
RTVSPost2010Prop32
280
     0
102
RTVSPost2010PropOp32
 70
     1
102
RTVSPost2010Prop33
280
     0
102
RTVSPost2010PropOp33
 70
     1
102
RTVSPost2010Prop34
280
     0
102
RTVSPost2010PropOp34
 70
     1
102
RTVSPost2010Prop35
280
     0
102
RTVSPost2010PropOp35
 70
     1
102
RTVSPost2010Prop36
280
     0
102
RTVSPost2010PropOp36
 70
     1
102
RTVSPost2010Prop37
 90
       50
102
RTVSPost2010PropOp37
 70
     1
102
RTVSPost2010Prop38
140
0.0
102
RTVSPost2010PropOp38
 70
     1
102
RTVSPost2010Prop39
140
1.0
102
RTVSPost2010PropOp39
 70
     1
102
RTVSPost2010Prop40
 90
        0
102
RTVSPost2010PropOp40
 70
     1
102
RTVSPost2010Prop41ColorIndex
 90
       18
102
RTVSPost2010Prop41ColorRGB
 90
        0
102
RTVSPost2010PropOp41
 70
     1
102
RTVSPost2010Prop42
 90
       50
102
RTVSPost2010PropOp42
 70
     1
102
RTVSPost2010Prop43
 90
        3
102
RTVSPost2010PropOp43
 70
     1
102
RTVSPost2010Prop44ColorIndex
 90
        5
102
RTVSPost2010Prop44ColorRGB
 90
      255
102
RTVSPost2010PropOp44
 70
     1
102
RTVSPost2010Prop45
280
     0
102
RTVSPost2010PropOp45
 70
     1
102
RTVSPost2010Prop46
 90
       50
102
RTVSPost2010PropOp46
 70
     1
102
RTVSPost2010Prop47
 90
       50
102
RTVSPost2010PropOp47
 70
     1
102
RTVSPost2010Prop48
 90
       50
102
RTVSPost2010PropOp48
 70
     1
102
RTVSPost2010Prop49
280
     0
102
RTVSPost2010PropOp49
 70
     1
102
RTVSPost2010Prop50
 90
       50
102
RTVSPost2010PropOp50
 70
     1
102
RTVSPost2010Prop51ColorIndex
 90
      256
102
RTVSPost2010Prop51ColorRGB
 90
-16777216
102
RTVSPost2010PropOp51
 70
     0
102
RTVSPost2010Prop52
140
1.0
102
RTVSPost2010PropOp52
 70
     0
102
RTVSPost2010Prop53
 90
        2
102
RTVSPost2010PropOp53
 70
     1
102
RTVSPost2010Prop54
  1
strokes_ogs.tif
102
RTVSPost2010PropOp54
 70
     1
102
RTVSPost2010Prop55
280
     0
102
RTVSPost2010PropOp55
 70
     1
102
RTVSPost2010Prop56
140
1.0
102
RTVSPost2010PropOp56
 70
     1
102
RTVSPost2010Prop57
140
1.0
102
RTVSPost2010PropOp57
 70
     1
  0
XRECORD
  5
C05
102
{ACAD_REACTORS
330
C04
102
}
330
C04
100
AcDbXrecord
280
     1
102
RTVSPropertyOp0
 70
     1
102
RTVSPropertyOp1
 70
     1
102
RTVSPropertyOp2
 70
     1
102
RTVSPropertyOp3
 70
     1
102
RTVSPropertyOp4
 70
     1
102
RTVSPropertyOp5
 70
     1
102
RTVSPropertyOp6
 70
     1
102
RTVSPropertyOp7
 70
     1
102
RTVSPropertyOp8
 70
     1
102
RTVSPropertyOp9
 70
     1
102
RTVSPropertyOp10
 70
     1
102
RTVSPropertyOp11
 70
     1
102
RTVSPropertyOp12
 70
     1
102
RTVSPropertyOp13
 70
     1
102
RTVSPropertyOp14
 70
     1
102
RTVSPropertyOp15
 70
     1
102
RTVSPropertyOp16
 70
     1
102
RTVSPropertyOp17
 70
     1
102
RTVSPropertyOp18
 70
     1
102
RTVSPropertyOp19
 70
     1
102
RTVSPropertyOp20
 70
     1
102
RTVSPropertyOp21
 70
     1
102
RTVSPropertyOp22
 70
     1
102
RTVSPropertyOp23
 70
     1
102
RTVSPropertyOp24
 70
     1
102
RTVSPropertyOp25
 70
     1
102
RTVSPropertyOp26
 70
     1
102
RTVSPropertyOp27
 70
     1
102
RTVSPropertyOp28
 70
     1
102
RTVSPropertyOp29
 70
     1
102
RTVSPropertyOp30
 70
     1
102
RTVSPropertyOp31
 70
     1
102
RTVSPropertyOp32
 70
     1
102
RTVSPropertyOp33
 70
     1
102
RTVSPropertyOp34
 70
     1
102
RTVSPropertyOp35
 70
     1
102
RTVSPropertyOp36
 70
     1
102
RTVSPropertyOp37
 70
     1
102
RTVSPropertyOp38
 70
     1
102
RTVSPropertyOp39
 70
     1
102
RTVSPropertyOp40
 70
     1
102
RTVSPropertyOp41
 70
     1
102
RTVSPropertyOp42
 70
     1
102
RTVSPropertyOp43
 70
     1
102
RTVSPropertyOp44
 70
     1
102
RTVSPropertyOp45
 70
     1
102
RTVSPropertyOp46
 70
     1
102
RTVSPropertyOp47
 70
     1
102
RTVSPropertyOp48
 70
     1
102
RTVSPropertyOp49
 70
     1
102
RTVSPropertyOp50
 70
     1
102
RTVSPropertyOp51
 70
     0
102
RTVSPropertyOp52
 70
     0
102
RTVSPropertyOp53
 70
     1
102
RTVSPropertyOp54
 70
     1
102
RTVSPropertyOp55
 70
     1
102
RTVSPropertyOp56
 70
     1
102
RTVSPropertyOp57
 70
     1
102
RTVSPost2010Prop28
280
     0
102
RTVSPost2010PropOp28
 70
     1
102
RTVSPost2010Prop29
280
     1
102
RTVSPost2010PropOp29
 70
     1
102
RTVSPost2010Prop30
280
     1
102
RTVSPost2010PropOp30
 70
     1
102
RTVSPost2010Prop31
280
     0
102
RTVSPost2010PropOp31
 70
     1
102
RTVSPost2010Prop32
280
     0
102
RTVSPost2010PropOp32
 70
     1
102
RTVSPost2010Prop33
280
     0
102
RTVSPost2010PropOp33
 70
     1
102
RTVSPost2010Prop34
280
     0
102
RTVSPost2010PropOp34
 70
     1
102
RTVSPost2010Prop35
280
     0
102
RTVSPost2010PropOp35
 70
     1
102
RTVSPost2010Prop36
280
     0
102
RTVSPost2010PropOp36
 70
     1
102
RTVSPost2010Prop37
 90
       50
102
RTVSPost2010PropOp37
 70
     1
102
RTVSPost2010Prop38
140
0.0
102
RTVSPost2010PropOp38
 70
     1
102
RTVSPost2010Prop39
140
1.0
102
RTVSPost2010PropOp39
 70
     1
102
RTVSPost2010Prop40
 90
        0
102
RTVSPost2010PropOp40
 70
     1
102
RTVSPost2010Prop41ColorIndex
 90
       18
102
RTVSPost2010Prop41ColorRGB
 90
        0
102
RTVSPost2010PropOp41
 70
     1
102
RTVSPost2010Prop42
 90
       50
102
RTVSPost2010PropOp42
 70
     1
102
RTVSPost2010Prop43
 90
        3
102
RTVSPost2010PropOp43
 70
     1
102
RTVSPost2010Prop44ColorIndex
 90
        5
102
RTVSPost2010Prop44ColorRGB
 90
      255
102
RTVSPost2010PropOp44
 70
     1
102
RTVSPost2010Prop45
280
     0
102
RTVSPost2010PropOp45
 70
     1
102
RTVSPost2010Prop46
 90
       50
102
RTVSPost2010PropOp46
 70
     1
102
RTVSPost2010Prop47
 90
       50
102
RTVSPost2010PropOp47
 70
     1
102
RTVSPost2010Prop48
 90
       50
102
RTVSPost2010PropOp48
 70
     1
102
RTVSPost2010Prop49
280
     0
102
RTVSPost2010PropOp49
 70
     1
102
RTVSPost2010Prop50
 90
       50
102
RTVSPost2010PropOp50
 70
     1
102
RTVSPost2010Prop51ColorIndex
 90
      256
102
RTVSPost2010Prop51ColorRGB
 90
-16777216
102
RTVSPost2010PropOp51
 70
     0
102
RTVSPost2010Prop52
140
1.0
102
RTVSPost2010PropOp52
 70
     0
102
RTVSPost2010Prop53
 90
        2
102
RTVSPost2010PropOp53
 70
     1
102
RTVSPost2010Prop54
  1
strokes_ogs.tif
102
RTVSPost2010PropOp54
 70
     1
102
RTVSPost2010Prop55
280
     0
102
RTVSPost2010PropOp55
 70
     1
102
RTVSPost2010Prop56
140
1.0
102
RTVSPost2010PropOp56
 70
     1
102
RTVSPost2010Prop57
140
1.0
102
RTVSPost2010PropOp57
 70
     1
  0
XRECORD
  5
C07
102
{ACAD_REACTORS
330
C06
102
}
330
C06
100
AcDbXrecord
280
     1
102
RTVSPropertyOp0
 70
     1
102
RTVSPropertyOp1
 70
     1
102
RTVSPropertyOp2
 70
     1
102
RTVSPropertyOp3
 70
     1
102
RTVSPropertyOp4
 70
     1
102
RTVSPropertyOp5
 70
     1
102
RTVSPropertyOp6
 70
     1
102
RTVSPropertyOp7
 70
     1
102
RTVSPropertyOp8
 70
     1
102
RTVSPropertyOp9
 70
     1
102
RTVSPropertyOp10
 70
     1
102
RTVSPropertyOp11
 70
     1
102
RTVSPropertyOp12
 70
     1
102
RTVSPropertyOp13
 70
     1
102
RTVSPropertyOp14
 70
     1
102
RTVSPropertyOp15
 70
     1
102
RTVSPropertyOp16
 70
     1
102
RTVSPropertyOp17
 70
     1
102
RTVSPropertyOp18
 70
     1
102
RTVSPropertyOp19
 70
     1
102
RTVSPropertyOp20
 70
     1
102
RTVSPropertyOp21
 70
     1
102
RTVSPropertyOp22
 70
     1
102
RTVSPropertyOp23
 70
     1
102
RTVSPropertyOp24
 70
     1
102
RTVSPropertyOp25
 70
     1
102
RTVSPropertyOp26
 70
     1
102
RTVSPropertyOp27
 70
     1
102
RTVSPropertyOp28
 70
     1
102
RTVSPropertyOp29
 70
     1
102
RTVSPropertyOp30
 70
     1
102
RTVSPropertyOp31
 70
     1
102
RTVSPropertyOp32
 70
     1
102
RTVSPropertyOp33
 70
     1
102
RTVSPropertyOp34
 70
     1
102
RTVSPropertyOp35
 70
     1
102
RTVSPropertyOp36
 70
     1
102
RTVSPropertyOp37
 70
     1
102
RTVSPropertyOp38
 70
     1
102
RTVSPropertyOp39
 70
     1
102
RTVSPropertyOp40
 70
     1
102
RTVSPropertyOp41
 70
     1
102
RTVSPropertyOp42
 70
     1
102
RTVSPropertyOp43
 70
     1
102
RTVSPropertyOp44
 70
     1
102
RTVSPropertyOp45
 70
     1
102
RTVSPropertyOp46
 70
     1
102
RTVSPropertyOp47
 70
     1
102
RTVSPropertyOp48
 70
     1
102
RTVSPropertyOp49
 70
     1
102
RTVSPropertyOp50
 70
     1
102
RTVSPropertyOp51
 70
     0
102
RTVSPropertyOp52
 70
     0
102
RTVSPropertyOp53
 70
     1
102
RTVSPropertyOp54
 70
     1
102
RTVSPropertyOp55
 70
     1
102
RTVSPropertyOp56
 70
     1
102
RTVSPropertyOp57
 70
     1
102
RTVSPost2010Prop28
280
     0
102
RTVSPost2010PropOp28
 70
     1
102
RTVSPost2010Prop29
280
     1
102
RTVSPost2010PropOp29
 70
     1
102
RTVSPost2010Prop30
280
     1
102
RTVSPost2010PropOp30
 70
     1
102
RTVSPost2010Prop31
280
     0
102
RTVSPost2010PropOp31
 70
     1
102
RTVSPost2010Prop32
280
     0
102
RTVSPost2010PropOp32
 70
     1
102
RTVSPost2010Prop33
280
     0
102
RTVSPost2010PropOp33
 70
     1
102
RTVSPost2010Prop34
280
     0
102
RTVSPost2010PropOp34
 70
     1
102
RTVSPost2010Prop35
280
     0
102
RTVSPost2010PropOp35
 70
     1
102
RTVSPost2010Prop36
280
     0
102
RTVSPost2010PropOp36
 70
     1
102
RTVSPost2010Prop37
 90
       50
102
RTVSPost2010PropOp37
 70
     1
102
RTVSPost2010Prop38
140
0.0
102
RTVSPost2010PropOp38
 70
     1
102
RTVSPost2010Prop39
140
1.0
102
RTVSPost2010PropOp39
 70
     1
102
RTVSPost2010Prop40
 90
        0
102
RTVSPost2010PropOp40
 70
     1
102
RTVSPost2010Prop41ColorIndex
 90
       18
102
RTVSPost2010Prop41ColorRGB
 90
        0
102
RTVSPost2010PropOp41
 70
     1
102
RTVSPost2010Prop42
 90
       50
102
RTVSPost2010PropOp42
 70
     1
102
RTVSPost2010Prop43
 90
        3
102
RTVSPost2010PropOp43
 70
     1
102
RTVSPost2010Prop44ColorIndex
 90
        5
102
RTVSPost2010Prop44ColorRGB
 90
      255
102
RTVSPost2010PropOp44
 70
     1
102
RTVSPost2010Prop45
280
     0
102
RTVSPost2010PropOp45
 70
     1
102
RTVSPost2010Prop46
 90
       50
102
RTVSPost2010PropOp46
 70
     1
102
RTVSPost2010Prop47
 90
       50
102
RTVSPost2010PropOp47
 70
     1
102
RTVSPost2010Prop48
 90
       50
102
RTVSPost2010PropOp48
 70
     1
102
RTVSPost2010Prop49
280
     0
102
RTVSPost2010PropOp49
 70
     1
102
RTVSPost2010Prop50
 90
       50
102
RTVSPost2010PropOp50
 70
     1
102
RTVSPost2010Prop51ColorIndex
 90
      256
102
RTVSPost2010Prop51ColorRGB
 90
-16777216
102
RTVSPost2010PropOp51
 70
     0
102
RTVSPost2010Prop52
140
1.0
102
RTVSPost2010PropOp52
 70
     0
102
RTVSPost2010Prop53
 90
        2
102
RTVSPost2010PropOp53
 70
     1
102
RTVSPost2010Prop54
  1
strokes_ogs.tif
102
RTVSPost2010PropOp54
 70
     1
102
RTVSPost2010Prop55
280
     0
102
RTVSPost2010PropOp55
 70
     1
102
RTVSPost2010Prop56
140
1.0
102
RTVSPost2010PropOp56
 70
     1
102
RTVSPost2010Prop57
140
1.0
102
RTVSPost2010PropOp57
 70
     1
  0
XRECORD
  5
C09
102
{ACAD_REACTORS
330
C08
102
}
330
C08
100
AcDbXrecord
280
     1
102
RTVSPropertyOp0
 70
     1
102
RTVSPropertyOp1
 70
     1
102
RTVSPropertyOp2
 70
     1
102
RTVSPropertyOp3
 70
     1
102
RTVSPropertyOp4
 70
     1
102
RTVSPropertyOp5
 70
     1
102
RTVSPropertyOp6
 70
     1
102
RTVSPropertyOp7
 70
     1
102
RTVSPropertyOp8
 70
     1
102
RTVSPropertyOp9
 70
     1
102
RTVSPropertyOp10
 70
     1
102
RTVSPropertyOp11
 70
     1
102
RTVSPropertyOp12
 70
     1
102
RTVSPropertyOp13
 70
     1
102
RTVSPropertyOp14
 70
     1
102
RTVSPropertyOp15
 70
     1
102
RTVSPropertyOp16
 70
     1
102
RTVSPropertyOp17
 70
     1
102
RTVSPropertyOp18
 70
     1
102
RTVSPropertyOp19
 70
     1
102
RTVSPropertyOp20
 70
     1
102
RTVSPropertyOp21
 70
     1
102
RTVSPropertyOp22
 70
     1
102
RTVSPropertyOp23
 70
     1
102
RTVSPropertyOp24
 70
     1
102
RTVSPropertyOp25
 70
     1
102
RTVSPropertyOp26
 70
     1
102
RTVSPropertyOp27
 70
     1
102
RTVSPropertyOp28
 70
     1
102
RTVSPropertyOp29
 70
     1
102
RTVSPropertyOp30
 70
     1
102
RTVSPropertyOp31
 70
     1
102
RTVSPropertyOp32
 70
     1
102
RTVSPropertyOp33
 70
     1
102
RTVSPropertyOp34
 70
     1
102
RTVSPropertyOp35
 70
     1
102
RTVSPropertyOp36
 70
     1
102
RTVSPropertyOp37
 70
     1
102
RTVSPropertyOp38
 70
     1
102
RTVSPropertyOp39
 70
     1
102
RTVSPropertyOp40
 70
     1
102
RTVSPropertyOp41
 70
     1
102
RTVSPropertyOp42
 70
     1
102
RTVSPropertyOp43
 70
     1
102
RTVSPropertyOp44
 70
     1
102
RTVSPropertyOp45
 70
     1
102
RTVSPropertyOp46
 70
     1
102
RTVSPropertyOp47
 70
     1
102
RTVSPropertyOp48
 70
     1
102
RTVSPropertyOp49
 70
     1
102
RTVSPropertyOp50
 70
     1
102
RTVSPropertyOp51
 70
     0
102
RTVSPropertyOp52
 70
     0
102
RTVSPropertyOp53
 70
     1
102
RTVSPropertyOp54
 70
     1
102
RTVSPropertyOp55
 70
     1
102
RTVSPropertyOp56
 70
     1
102
RTVSPropertyOp57
 70
     1
102
RTVSPost2010Prop28
280
     0
102
RTVSPost2010PropOp28
 70
     1
102
RTVSPost2010Prop29
280
     1
102
RTVSPost2010PropOp29
 70
     1
102
RTVSPost2010Prop30
280
     1
102
RTVSPost2010PropOp30
 70
     1
102
RTVSPost2010Prop31
280
     0
102
RTVSPost2010PropOp31
 70
     1
102
RTVSPost2010Prop32
280
     0
102
RTVSPost2010PropOp32
 70
     1
102
RTVSPost2010Prop33
280
     0
102
RTVSPost2010PropOp33
 70
     1
102
RTVSPost2010Prop34
280
     0
102
RTVSPost2010PropOp34
 70
     1
102
RTVSPost2010Prop35
280
     0
102
RTVSPost2010PropOp35
 70
     1
102
RTVSPost2010Prop36
280
     0
102
RTVSPost2010PropOp36
 70
     1
102
RTVSPost2010Prop37
 90
       50
102
RTVSPost2010PropOp37
 70
     1
102
RTVSPost2010Prop38
140
0.0
102
RTVSPost2010PropOp38
 70
     1
102
RTVSPost2010Prop39
140
1.0
102
RTVSPost2010PropOp39
 70
     1
102
RTVSPost2010Prop40
 90
        0
102
RTVSPost2010PropOp40
 70
     1
102
RTVSPost2010Prop41ColorIndex
 90
       18
102
RTVSPost2010Prop41ColorRGB
 90
        0
102
RTVSPost2010PropOp41
 70
     1
102
RTVSPost2010Prop42
 90
       50
102
RTVSPost2010PropOp42
 70
     1
102
RTVSPost2010Prop43
 90
        3
102
RTVSPost2010PropOp43
 70
     1
102
RTVSPost2010Prop44ColorIndex
 90
        5
102
RTVSPost2010Prop44ColorRGB
 90
      255
102
RTVSPost2010PropOp44
 70
     1
102
RTVSPost2010Prop45
280
     0
102
RTVSPost2010PropOp45
 70
     1
102
RTVSPost2010Prop46
 90
       50
102
RTVSPost2010PropOp46
 70
     1
102
RTVSPost2010Prop47
 90
       50
102
RTVSPost2010PropOp47
 70
     1
102
RTVSPost2010Prop48
 90
       50
102
RTVSPost2010PropOp48
 70
     1
102
RTVSPost2010Prop49
280
     0
102
RTVSPost2010PropOp49
 70
     1
102
RTVSPost2010Prop50
 90
       50
102
RTVSPost2010PropOp50
 70
     1
102
RTVSPost2010Prop51ColorIndex
 90
      256
102
RTVSPost2010Prop51ColorRGB
 90
-16777216
102
RTVSPost2010PropOp51
 70
     0
102
RTVSPost2010Prop52
140
1.0
102
RTVSPost2010PropOp52
 70
     0
102
RTVSPost2010Prop53
 90
        2
102
RTVSPost2010PropOp53
 70
     1
102
RTVSPost2010Prop54
  1
strokes_ogs.tif
102
RTVSPost2010PropOp54
 70
     1
102
RTVSPost2010Prop55
280
     0
102
RTVSPost2010PropOp55
 70
     1
102
RTVSPost2010Prop56
140
1.0
102
RTVSPost2010PropOp56
 70
     1
102
RTVSPost2010Prop57
140
1.0
102
RTVSPost2010PropOp57
 70
     1
  0
XRECORD
  5
C0B
102
{ACAD_REACTORS
330
C0A
102
}
330
C0A
100
AcDbXrecord
280
     1
102
RTVSPropertyOp0
 70
     1
102
RTVSPropertyOp1
 70
     1
102
RTVSPropertyOp2
 70
     1
102
RTVSPropertyOp3
 70
     1
102
RTVSPropertyOp4
 70
     1
102
RTVSPropertyOp5
 70
     1
102
RTVSPropertyOp6
 70
     1
102
RTVSPropertyOp7
 70
     1
102
RTVSPropertyOp8
 70
     1
102
RTVSPropertyOp9
 70
     1
102
RTVSPropertyOp10
 70
     1
102
RTVSPropertyOp11
 70
     1
102
RTVSPropertyOp12
 70
     1
102
RTVSPropertyOp13
 70
     1
102
RTVSPropertyOp14
 70
     1
102
RTVSPropertyOp15
 70
     1
102
RTVSPropertyOp16
 70
     1
102
RTVSPropertyOp17
 70
     1
102
RTVSPropertyOp18
 70
     1
102
RTVSPropertyOp19
 70
     1
102
RTVSPropertyOp20
 70
     1
102
RTVSPropertyOp21
 70
     1
102
RTVSPropertyOp22
 70
     1
102
RTVSPropertyOp23
 70
     1
102
RTVSPropertyOp24
 70
     1
102
RTVSPropertyOp25
 70
     1
102
RTVSPropertyOp26
 70
     1
102
RTVSPropertyOp27
 70
     1
102
RTVSPropertyOp28
 70
     1
102
RTVSPropertyOp29
 70
     1
102
RTVSPropertyOp30
 70
     1
102
RTVSPropertyOp31
 70
     1
102
RTVSPropertyOp32
 70
     1
102
RTVSPropertyOp33
 70
     1
102
RTVSPropertyOp34
 70
     1
102
RTVSPropertyOp35
 70
     1
102
RTVSPropertyOp36
 70
     1
102
RTVSPropertyOp37
 70
     1
102
RTVSPropertyOp38
 70
     1
102
RTVSPropertyOp39
 70
     1
102
RTVSPropertyOp40
 70
     1
102
RTVSPropertyOp41
 70
     1
102
RTVSPropertyOp42
 70
     1
102
RTVSPropertyOp43
 70
     1
102
RTVSPropertyOp44
 70
     1
102
RTVSPropertyOp45
 70
     1
102
RTVSPropertyOp46
 70
     1
102
RTVSPropertyOp47
 70
     1
102
RTVSPropertyOp48
 70
     1
102
RTVSPropertyOp49
 70
     1
102
RTVSPropertyOp50
 70
     1
102
RTVSPropertyOp51
 70
     0
102
RTVSPropertyOp52
 70
     0
102
RTVSPropertyOp53
 70
     1
102
RTVSPropertyOp54
 70
     1
102
RTVSPropertyOp55
 70
     1
102
RTVSPropertyOp56
 70
     1
102
RTVSPropertyOp57
 70
     1
102
RTVSPost2010Prop28
280
     0
102
RTVSPost2010PropOp28
 70
     1
102
RTVSPost2010Prop29
280
     1
102
RTVSPost2010PropOp29
 70
     1
102
RTVSPost2010Prop30
280
     1
102
RTVSPost2010PropOp30
 70
     1
102
RTVSPost2010Prop31
280
     0
102
RTVSPost2010PropOp31
 70
     1
102
RTVSPost2010Prop32
280
     0
102
RTVSPost2010PropOp32
 70
     1
102
RTVSPost2010Prop33
280
     0
102
RTVSPost2010PropOp33
 70
     1
102
RTVSPost2010Prop34
280
     0
102
RTVSPost2010PropOp34
 70
     1
102
RTVSPost2010Prop35
280
     0
102
RTVSPost2010PropOp35
 70
     1
102
RTVSPost2010Prop36
280
     0
102
RTVSPost2010PropOp36
 70
     1
102
RTVSPost2010Prop37
 90
       50
102
RTVSPost2010PropOp37
 70
     1
102
RTVSPost2010Prop38
140
0.0
102
RTVSPost2010PropOp38
 70
     1
102
RTVSPost2010Prop39
140
1.0
102
RTVSPost2010PropOp39
 70
     1
102
RTVSPost2010Prop40
 90
        0
102
RTVSPost2010PropOp40
 70
     1
102
RTVSPost2010Prop41ColorIndex
 90
       18
102
RTVSPost2010Prop41ColorRGB
 90
        0
102
RTVSPost2010PropOp41
 70
     1
102
RTVSPost2010Prop42
 90
       50
102
RTVSPost2010PropOp42
 70
     1
102
RTVSPost2010Prop43
 90
        3
102
RTVSPost2010PropOp43
 70
     1
102
RTVSPost2010Prop44ColorIndex
 90
        5
102
RTVSPost2010Prop44ColorRGB
 90
      255
102
RTVSPost2010PropOp44
 70
     1
102
RTVSPost2010Prop45
280
     0
102
RTVSPost2010PropOp45
 70
     1
102
RTVSPost2010Prop46
 90
       50
102
RTVSPost2010PropOp46
 70
     1
102
RTVSPost2010Prop47
 90
       50
102
RTVSPost2010PropOp47
 70
     1
102
RTVSPost2010Prop48
 90
       50
102
RTVSPost2010PropOp48
 70
     1
102
RTVSPost2010Prop49
280
     0
102
RTVSPost2010PropOp49
 70
     1
102
RTVSPost2010Prop50
 90
       50
102
RTVSPost2010PropOp50
 70
     1
102
RTVSPost2010Prop51ColorIndex
 90
      256
102
RTVSPost2010Prop51ColorRGB
 90
-16777216
102
RTVSPost2010PropOp51
 70
     0
102
RTVSPost2010Prop52
140
1.0
102
RTVSPost2010PropOp52
 70
     0
102
RTVSPost2010Prop53
 90
        2
102
RTVSPost2010PropOp53
 70
     1
102
RTVSPost2010Prop54
  1
strokes_ogs.tif
102
RTVSPost2010PropOp54
 70
     1
102
RTVSPost2010Prop55
280
     0
102
RTVSPost2010PropOp55
 70
     1
102
RTVSPost2010Prop56
140
1.0
102
RTVSPost2010PropOp56
 70
     1
102
RTVSPost2010Prop57
140
1.0
102
RTVSPost2010PropOp57
 70
     1
  0
XRECORD
  5
C0D
102
{ACAD_REACTORS
330
C0C
102
}
330
C0C
100
AcDbXrecord
280
     1
102
RTVSPropertyOp0
 70
     0
102
RTVSPropertyOp1
 70
     0
102
RTVSPropertyOp2
 70
     0
102
RTVSPropertyOp3
 70
     0
102
RTVSPropertyOp4
 70
     0
102
RTVSPropertyOp5
 70
     0
102
RTVSPropertyOp6
 70
     0
102
RTVSPropertyOp7
 70
     0
102
RTVSPropertyOp8
 70
     0
102
RTVSPropertyOp9
 70
     0
102
RTVSPropertyOp10
 70
     0
102
RTVSPropertyOp11
 70
     0
102
RTVSPropertyOp12
 70
     0
102
RTVSPropertyOp13
 70
     0
102
RTVSPropertyOp14
 70
     2
102
RTVSPropertyOp15
 70
     0
102
RTVSPropertyOp16
 70
     0
102
RTVSPropertyOp17
 70
     0
102
RTVSPropertyOp18
 70
     0
102
RTVSPropertyOp19
 70
     0
102
RTVSPropertyOp20
 70
     0
102
RTVSPropertyOp21
 70
     0
102
RTVSPropertyOp22
 70
     0
102
RTVSPropertyOp23
 70
     0
102
RTVSPropertyOp24
 70
     0
102
RTVSPropertyOp25
 70
     0
102
RTVSPropertyOp26
 70
     0
102
RTVSPropertyOp27
 70
     0
102
RTVSPropertyOp28
 70
     0
102
RTVSPropertyOp29
 70
     0
102
RTVSPropertyOp30
 70
     0
102
RTVSPropertyOp31
 70
     0
102
RTVSPropertyOp32
 70
     0
102
RTVSPropertyOp33
 70
     0
102
RTVSPropertyOp34
 70
     0
102
RTVSPropertyOp35
 70
     0
102
RTVSPropertyOp36
 70
     0
102
RTVSPropertyOp37
 70
     0
102
RTVSPropertyOp38
 70
     0
102
RTVSPropertyOp39
 70
     0
102
RTVSPropertyOp40
 70
     0
102
RTVSPropertyOp41
 70
     0
102
RTVSPropertyOp42
 70
     0
102
RTVSPropertyOp43
 70
     0
102
RTVSPropertyOp44
 70
     0
102
RTVSPropertyOp45
 70
     0
102
RTVSPropertyOp46
 70
     0
102
RTVSPropertyOp47
 70
     0
102
RTVSPropertyOp48
 70
     0
102
RTVSPropertyOp49
 70
     0
102
RTVSPropertyOp50
 70
     0
102
RTVSPropertyOp51
 70
     0
102
RTVSPropertyOp52
 70
     0
102
RTVSPropertyOp53
 70
     0
102
RTVSPropertyOp54
 70
     0
102
RTVSPropertyOp55
 70
     0
102
RTVSPropertyOp56
 70
     0
102
RTVSPropertyOp57
 70
     0
102
RTVSPost2010Prop28
280
     0
102
RTVSPost2010PropOp28
 70
     0
102
RTVSPost2010Prop29
280
     1
102
RTVSPost2010PropOp29
 70
     0
102
RTVSPost2010Prop30
280
     1
102
RTVSPost2010PropOp30
 70
     0
102
RTVSPost2010Prop31
280
     0
102
RTVSPost2010PropOp31
 70
     0
102
RTVSPost2010Prop32
280
     0
102
RTVSPost2010PropOp32
 70
     0
102
RTVSPost2010Prop33
280
     0
102
RTVSPost2010PropOp33
 70
     0
102
RTVSPost2010Prop34
280
     0
102
RTVSPost2010PropOp34
 70
     0
102
RTVSPost2010Prop35
280
     0
102
RTVSPost2010PropOp35
 70
     0
102
RTVSPost2010Prop36
280
     0
102
RTVSPost2010PropOp36
 70
     0
102
RTVSPost2010Prop37
 90
       50
102
RTVSPost2010PropOp37
 70
     0
102
RTVSPost2010Prop38
140
0.0
102
RTVSPost2010PropOp38
 70
     0
102
RTVSPost2010Prop39
140
1.0
102
RTVSPost2010PropOp39
 70
     0
102
RTVSPost2010Prop40
 90
        0
102
RTVSPost2010PropOp40
 70
     0
102
RTVSPost2010Prop41ColorIndex
 90
       18
102
RTVSPost2010Prop41ColorRGB
 90
        0
102
RTVSPost2010PropOp41
 70
     0
102
RTVSPost2010Prop42
 90
       50
102
RTVSPost2010PropOp42
 70
     0
102
RTVSPost2010Prop43
 90
        3
102
RTVSPost2010PropOp43
 70
     0
102
RTVSPost2010Prop44ColorIndex
 90
        5
102
RTVSPost2010Prop44ColorRGB
 90
      255
102
RTVSPost2010PropOp44
 70
     0
102
RTVSPost2010Prop45
280
     0
102
RTVSPost2010PropOp45
 70
     0
102
RTVSPost2010Prop46
 90
       50
102
RTVSPost2010PropOp46
 70
     0
102
RTVSPost2010Prop47
 90
       50
102
RTVSPost2010PropOp47
 70
     0
102
RTVSPost2010Prop48
 90
       50
102
RTVSPost2010PropOp48
 70
     0
102
RTVSPost2010Prop49
280
     0
102
RTVSPost2010PropOp49
 70
     0
102
RTVSPost2010Prop50
 90
       50
102
RTVSPost2010PropOp50
 70
     0
102
RTVSPost2010Prop51ColorIndex
 90
      256
102
RTVSPost2010Prop51ColorRGB
 90
-16777216
102
RTVSPost2010PropOp51
 70
     0
102
RTVSPost2010Prop52
140
1.0
102
RTVSPost2010PropOp52
 70
     0
102
RTVSPost2010Prop53
 90
        2
102
RTVSPost2010PropOp53
 70
     0
102
RTVSPost2010Prop54
  1
strokes_ogs.tif
102
RTVSPost2010PropOp54
 70
     0
102
RTVSPost2010Prop55
280
     0
102
RTVSPost2010PropOp55
 70
     0
102
RTVSPost2010Prop56
140
1.0
102
RTVSPost2010PropOp56
 70
     0
102
RTVSPost2010Prop57
140
1.0
102
RTVSPost2010PropOp57
 70
     0
  0
XRECORD
  5
C0F
102
{ACAD_REACTORS
330
C0E
102
}
330
C0E
100
AcDbXrecord
280
     1
102
RTVSPropertyOp0
 70
     1
102
RTVSPropertyOp1
 70
     1
102
RTVSPropertyOp2
 70
     1
102
RTVSPropertyOp3
 70
     1
102
RTVSPropertyOp4
 70
     1
102
RTVSPropertyOp5
 70
     1
102
RTVSPropertyOp6
 70
     1
102
RTVSPropertyOp7
 70
     1
102
RTVSPropertyOp8
 70
     1
102
RTVSPropertyOp9
 70
     1
102
RTVSPropertyOp10
 70
     1
102
RTVSPropertyOp11
 70
     1
102
RTVSPropertyOp12
 70
     1
102
RTVSPropertyOp13
 70
     1
102
RTVSPropertyOp14
 70
     1
102
RTVSPropertyOp15
 70
     1
102
RTVSPropertyOp16
 70
     1
102
RTVSPropertyOp17
 70
     1
102
RTVSPropertyOp18
 70
     1
102
RTVSPropertyOp19
 70
     1
102
RTVSPropertyOp20
 70
     1
102
RTVSPropertyOp21
 70
     1
102
RTVSPropertyOp22
 70
     1
102
RTVSPropertyOp23
 70
     1
102
RTVSPropertyOp24
 70
     1
102
RTVSPropertyOp25
 70
     1
102
RTVSPropertyOp26
 70
     1
102
RTVSPropertyOp27
 70
     1
102
RTVSPropertyOp28
 70
     1
102
RTVSPropertyOp29
 70
     1
102
RTVSPropertyOp30
 70
     1
102
RTVSPropertyOp31
 70
     1
102
RTVSPropertyOp32
 70
     1
102
RTVSPropertyOp33
 70
     1
102
RTVSPropertyOp34
 70
     1
102
RTVSPropertyOp35
 70
     1
102
RTVSPropertyOp36
 70
     1
102
RTVSPropertyOp37
 70
     1
102
RTVSPropertyOp38
 70
     1
102
RTVSPropertyOp39
 70
     1
102
RTVSPropertyOp40
 70
     1
102
RTVSPropertyOp41
 70
     1
102
RTVSPropertyOp42
 70
     1
102
RTVSPropertyOp43
 70
     1
102
RTVSPropertyOp44
 70
     1
102
RTVSPropertyOp45
 70
     1
102
RTVSPropertyOp46
 70
     1
102
RTVSPropertyOp47
 70
     1
102
RTVSPropertyOp48
 70
     1
102
RTVSPropertyOp49
 70
     1
102
RTVSPropertyOp50
 70
     1
102
RTVSPropertyOp51
 70
     0
102
RTVSPropertyOp52
 70
     0
102
RTVSPropertyOp53
 70
     1
102
RTVSPropertyOp54
 70
     1
102
RTVSPropertyOp55
 70
     1
102
RTVSPropertyOp56
 70
     1
102
RTVSPropertyOp57
 70
     1
102
RTVSPost2010Prop28
280
     0
102
RTVSPost2010PropOp28
 70
     1
102
RTVSPost2010Prop29
280
     1
102
RTVSPost2010PropOp29
 70
     1
102
RTVSPost2010Prop30
280
     1
102
RTVSPost2010PropOp30
 70
     1
102
RTVSPost2010Prop31
280
     0
102
RTVSPost2010PropOp31
 70
     1
102
RTVSPost2010Prop32
280
     0
102
RTVSPost2010PropOp32
 70
     1
102
RTVSPost2010Prop33
280
     0
102
RTVSPost2010PropOp33
 70
     1
102
RTVSPost2010Prop34
280
     0
102
RTVSPost2010PropOp34
 70
     1
102
RTVSPost2010Prop35
280
     0
102
RTVSPost2010PropOp35
 70
     1
102
RTVSPost2010Prop36
280
     0
102
RTVSPost2010PropOp36
 70
     1
102
RTVSPost2010Prop37
 90
       50
102
RTVSPost2010PropOp37
 70
     1
102
RTVSPost2010Prop38
140
0.0
102
RTVSPost2010PropOp38
 70
     1
102
RTVSPost2010Prop39
140
1.0
102
RTVSPost2010PropOp39
 70
     1
102
RTVSPost2010Prop40
 90
        0
102
RTVSPost2010PropOp40
 70
     1
102
RTVSPost2010Prop41ColorIndex
 90
       18
102
RTVSPost2010Prop41ColorRGB
 90
        0
102
RTVSPost2010PropOp41
 70
     1
102
RTVSPost2010Prop42
 90
       50
102
RTVSPost2010PropOp42
 70
     1
102
RTVSPost2010Prop43
 90
        3
102
RTVSPost2010PropOp43
 70
     1
102
RTVSPost2010Prop44ColorIndex
 90
        5
102
RTVSPost2010Prop44ColorRGB
 90
      255
102
RTVSPost2010PropOp44
 70
     1
102
RTVSPost2010Prop45
280
     0
102
RTVSPost2010PropOp45
 70
     1
102
RTVSPost2010Prop46
 90
       50
102
RTVSPost2010PropOp46
 70
     1
102
RTVSPost2010Prop47
 90
       50
102
RTVSPost2010PropOp47
 70
     1
102
RTVSPost2010Prop48
 90
       50
102
RTVSPost2010PropOp48
 70
     1
102
RTVSPost2010Prop49
280
     0
102
RTVSPost2010PropOp49
 70
     1
102
RTVSPost2010Prop50
 90
       50
102
RTVSPost2010PropOp50
 70
     1
102
RTVSPost2010Prop51ColorIndex
 90
      256
102
RTVSPost2010Prop51ColorRGB
 90
-16777216
102
RTVSPost2010PropOp51
 70
     0
102
RTVSPost2010Prop52
140
1.0
102
RTVSPost2010PropOp52
 70
     0
102
RTVSPost2010Prop53
 90
        2
102
RTVSPost2010PropOp53
 70
     1
102
RTVSPost2010Prop54
  1
strokes_ogs.tif
102
RTVSPost2010PropOp54
 70
     1
102
RTVSPost2010Prop55
280
     0
102
RTVSPost2010PropOp55
 70
     1
102
RTVSPost2010Prop56
140
1.0
102
RTVSPost2010PropOp56
 70
     1
102
RTVSPost2010Prop57
140
1.0
102
RTVSPost2010PropOp57
 70
     1
  0
XRECORD
  5
C11
102
{ACAD_REACTORS
330
C10
102
}
330
C10
100
AcDbXrecord
280
     1
102
RTVSPropertyOp0
 70
     1
102
RTVSPropertyOp1
 70
     1
102
RTVSPropertyOp2
 70
     1
102
RTVSPropertyOp3
 70
     1
102
RTVSPropertyOp4
 70
     1
102
RTVSPropertyOp5
 70
     1
102
RTVSPropertyOp6
 70
     1
102
RTVSPropertyOp7
 70
     1
102
RTVSPropertyOp8
 70
     1
102
RTVSPropertyOp9
 70
     1
102
RTVSPropertyOp10
 70
     1
102
RTVSPropertyOp11
 70
     1
102
RTVSPropertyOp12
 70
     1
102
RTVSPropertyOp13
 70
     1
102
RTVSPropertyOp14
 70
     1
102
RTVSPropertyOp15
 70
     1
102
RTVSPropertyOp16
 70
     1
102
RTVSPropertyOp17
 70
     1
102
RTVSPropertyOp18
 70
     1
102
RTVSPropertyOp19
 70
     1
102
RTVSPropertyOp20
 70
     1
102
RTVSPropertyOp21
 70
     1
102
RTVSPropertyOp22
 70
     1
102
RTVSPropertyOp23
 70
     1
102
RTVSPropertyOp24
 70
     1
102
RTVSPropertyOp25
 70
     1
102
RTVSPropertyOp26
 70
     1
102
RTVSPropertyOp27
 70
     1
102
RTVSPropertyOp28
 70
     1
102
RTVSPropertyOp29
 70
     1
102
RTVSPropertyOp30
 70
     1
102
RTVSPropertyOp31
 70
     1
102
RTVSPropertyOp32
 70
     1
102
RTVSPropertyOp33
 70
     1
102
RTVSPropertyOp34
 70
     1
102
RTVSPropertyOp35
 70
     1
102
RTVSPropertyOp36
 70
     1
102
RTVSPropertyOp37
 70
     1
102
RTVSPropertyOp38
 70
     1
102
RTVSPropertyOp39
 70
     1
102
RTVSPropertyOp40
 70
     1
102
RTVSPropertyOp41
 70
     1
102
RTVSPropertyOp42
 70
     1
102
RTVSPropertyOp43
 70
     1
102
RTVSPropertyOp44
 70
     1
102
RTVSPropertyOp45
 70
     1
102
RTVSPropertyOp46
 70
     1
102
RTVSPropertyOp47
 70
     1
102
RTVSPropertyOp48
 70
     1
102
RTVSPropertyOp49
 70
     1
102
RTVSPropertyOp50
 70
     1
102
RTVSPropertyOp51
 70
     0
102
RTVSPropertyOp52
 70
     0
102
RTVSPropertyOp53
 70
     1
102
RTVSPropertyOp54
 70
     1
102
RTVSPropertyOp55
 70
     1
102
RTVSPropertyOp56
 70
     1
102
RTVSPropertyOp57
 70
     1
102
RTVSPost2010Prop28
280
     0
102
RTVSPost2010PropOp28
 70
     1
102
RTVSPost2010Prop29
280
     1
102
RTVSPost2010PropOp29
 70
     1
102
RTVSPost2010Prop30
280
     1
102
RTVSPost2010PropOp30
 70
     1
102
RTVSPost2010Prop31
280
     0
102
RTVSPost2010PropOp31
 70
     1
102
RTVSPost2010Prop32
280
     0
102
RTVSPost2010PropOp32
 70
     1
102
RTVSPost2010Prop33
280
     0
102
RTVSPost2010PropOp33
 70
     1
102
RTVSPost2010Prop34
280
     0
102
RTVSPost2010PropOp34
 70
     1
102
RTVSPost2010Prop35
280
     0
102
RTVSPost2010PropOp35
 70
     1
102
RTVSPost2010Prop36
280
     0
102
RTVSPost2010PropOp36
 70
     1
102
RTVSPost2010Prop37
 90
       50
102
RTVSPost2010PropOp37
 70
     1
102
RTVSPost2010Prop38
140
0.0
102
RTVSPost2010PropOp38
 70
     1
102
RTVSPost2010Prop39
140
1.0
102
RTVSPost2010PropOp39
 70
     1
102
RTVSPost2010Prop40
 90
        0
102
RTVSPost2010PropOp40
 70
     1
102
RTVSPost2010Prop41ColorIndex
 90
       18
102
RTVSPost2010Prop41ColorRGB
 90
        0
102
RTVSPost2010PropOp41
 70
     1
102
RTVSPost2010Prop42
 90
       50
102
RTVSPost2010PropOp42
 70
     1
102
RTVSPost2010Prop43
 90
        3
102
RTVSPost2010PropOp43
 70
     1
102
RTVSPost2010Prop44ColorIndex
 90
        5
102
RTVSPost2010Prop44ColorRGB
 90
      255
102
RTVSPost2010PropOp44
 70
     1
102
RTVSPost2010Prop45
280
     0
102
RTVSPost2010PropOp45
 70
     1
102
RTVSPost2010Prop46
 90
       50
102
RTVSPost2010PropOp46
 70
     1
102
RTVSPost2010Prop47
 90
       50
102
RTVSPost2010PropOp47
 70
     1
102
RTVSPost2010Prop48
 90
       50
102
RTVSPost2010PropOp48
 70
     1
102
RTVSPost2010Prop49
280
     0
102
RTVSPost2010PropOp49
 70
     1
102
RTVSPost2010Prop50
 90
       50
102
RTVSPost2010PropOp50
 70
     1
102
RTVSPost2010Prop51ColorIndex
 90
      256
102
RTVSPost2010Prop51ColorRGB
 90
-16777216
102
RTVSPost2010PropOp51
 70
     0
102
RTVSPost2010Prop52
140
1.0
102
RTVSPost2010PropOp52
 70
     0
102
RTVSPost2010Prop53
 90
        2
102
RTVSPost2010PropOp53
 70
     1
102
RTVSPost2010Prop54
  1
strokes_ogs.tif
102
RTVSPost2010PropOp54
 70
     1
102
RTVSPost2010Prop55
280
     0
102
RTVSPost2010PropOp55
 70
     1
102
RTVSPost2010Prop56
140
1.0
102
RTVSPost2010PropOp56
 70
     1
102
RTVSPost2010Prop57
140
1.0
102
RTVSPost2010PropOp57
 70
     1
  0
XRECORD
  5
C13
102
{ACAD_REACTORS
330
C12
102
}
330
C12
100
AcDbXrecord
280
     1
102
RTVSPropertyOp0
 70
     1
102
RTVSPropertyOp1
 70
     1
102
RTVSPropertyOp2
 70
     1
102
RTVSPropertyOp3
 70
     1
102
RTVSPropertyOp4
 70
     1
102
RTVSPropertyOp5
 70
     1
102
RTVSPropertyOp6
 70
     1
102
RTVSPropertyOp7
 70
     1
102
RTVSPropertyOp8
 70
     1
102
RTVSPropertyOp9
 70
     1
102
RTVSPropertyOp10
 70
     1
102
RTVSPropertyOp11
 70
     1
102
RTVSPropertyOp12
 70
     1
102
RTVSPropertyOp13
 70
     1
102
RTVSPropertyOp14
 70
     1
102
RTVSPropertyOp15
 70
     1
102
RTVSPropertyOp16
 70
     1
102
RTVSPropertyOp17
 70
     1
102
RTVSPropertyOp18
 70
     1
102
RTVSPropertyOp19
 70
     1
102
RTVSPropertyOp20
 70
     1
102
RTVSPropertyOp21
 70
     1
102
RTVSPropertyOp22
 70
     1
102
RTVSPropertyOp23
 70
     1
102
RTVSPropertyOp24
 70
     1
102
RTVSPropertyOp25
 70
     1
102
RTVSPropertyOp26
 70
     1
102
RTVSPropertyOp27
 70
     1
102
RTVSPropertyOp28
 70
     1
102
RTVSPropertyOp29
 70
     1
102
RTVSPropertyOp30
 70
     1
102
RTVSPropertyOp31
 70
     1
102
RTVSPropertyOp32
 70
     1
102
RTVSPropertyOp33
 70
     1
102
RTVSPropertyOp34
 70
     1
102
RTVSPropertyOp35
 70
     1
102
RTVSPropertyOp36
 70
     1
102
RTVSPropertyOp37
 70
     1
102
RTVSPropertyOp38
 70
     1
102
RTVSPropertyOp39
 70
     1
102
RTVSPropertyOp40
 70
     1
102
RTVSPropertyOp41
 70
     1
102
RTVSPropertyOp42
 70
     1
102
RTVSPropertyOp43
 70
     1
102
RTVSPropertyOp44
 70
     1
102
RTVSPropertyOp45
 70
     1
102
RTVSPropertyOp46
 70
     1
102
RTVSPropertyOp47
 70
     1
102
RTVSPropertyOp48
 70
     1
102
RTVSPropertyOp49
 70
     1
102
RTVSPropertyOp50
 70
     1
102
RTVSPropertyOp51
 70
     0
102
RTVSPropertyOp52
 70
     0
102
RTVSPropertyOp53
 70
     1
102
RTVSPropertyOp54
 70
     1
102
RTVSPropertyOp55
 70
     1
102
RTVSPropertyOp56
 70
     1
102
RTVSPropertyOp57
 70
     1
102
RTVSPost2010Prop28
280
     0
102
RTVSPost2010PropOp28
 70
     1
102
RTVSPost2010Prop29
280
     1
102
RTVSPost2010PropOp29
 70
     1
102
RTVSPost2010Prop30
280
     1
102
RTVSPost2010PropOp30
 70
     1
102
RTVSPost2010Prop31
280
     0
102
RTVSPost2010PropOp31
 70
     1
102
RTVSPost2010Prop32
280
     0
102
RTVSPost2010PropOp32
 70
     1
102
RTVSPost2010Prop33
280
     0
102
RTVSPost2010PropOp33
 70
     1
102
RTVSPost2010Prop34
280
     0
102
RTVSPost2010PropOp34
 70
     1
102
RTVSPost2010Prop35
280
     0
102
RTVSPost2010PropOp35
 70
     1
102
RTVSPost2010Prop36
280
     0
102
RTVSPost2010PropOp36
 70
     1
102
RTVSPost2010Prop37
 90
       50
102
RTVSPost2010PropOp37
 70
     1
102
RTVSPost2010Prop38
140
0.0
102
RTVSPost2010PropOp38
 70
     1
102
RTVSPost2010Prop39
140
1.0
102
RTVSPost2010PropOp39
 70
     1
102
RTVSPost2010Prop40
 90
        0
102
RTVSPost2010PropOp40
 70
     1
102
RTVSPost2010Prop41ColorIndex
 90
       18
102
RTVSPost2010Prop41ColorRGB
 90
        0
102
RTVSPost2010PropOp41
 70
     1
102
RTVSPost2010Prop42
 90
       50
102
RTVSPost2010PropOp42
 70
     1
102
RTVSPost2010Prop43
 90
        3
102
RTVSPost2010PropOp43
 70
     1
102
RTVSPost2010Prop44ColorIndex
 90
        5
102
RTVSPost2010Prop44ColorRGB
 90
      255
102
RTVSPost2010PropOp44
 70
     1
102
RTVSPost2010Prop45
280
     0
102
RTVSPost2010PropOp45
 70
     1
102
RTVSPost2010Prop46
 90
       50
102
RTVSPost2010PropOp46
 70
     1
102
RTVSPost2010Prop47
 90
       50
102
RTVSPost2010PropOp47
 70
     1
102
RTVSPost2010Prop48
 90
       50
102
RTVSPost2010PropOp48
 70
     1
102
RTVSPost2010Prop49
280
     0
102
RTVSPost2010PropOp49
 70
     1
102
RTVSPost2010Prop50
 90
       50
102
RTVSPost2010PropOp50
 70
     1
102
RTVSPost2010Prop51ColorIndex
 90
      256
102
RTVSPost2010Prop51ColorRGB
 90
-16777216
102
RTVSPost2010PropOp51
 70
     0
102
RTVSPost2010Prop52
140
1.0
102
RTVSPost2010PropOp52
 70
     0
102
RTVSPost2010Prop53
 90
        2
102
RTVSPost2010PropOp53
 70
     1
102
RTVSPost2010Prop54
  1
strokes_ogs.tif
102
RTVSPost2010PropOp54
 70
     1
102
RTVSPost2010Prop55
280
     0
102
RTVSPost2010PropOp55
 70
     1
102
RTVSPost2010Prop56
140
1.0
102
RTVSPost2010PropOp56
 70
     1
102
RTVSPost2010Prop57
140
1.0
102
RTVSPost2010PropOp57
 70
     1
  0
XRECORD
  5
C15
102
{ACAD_REACTORS
330
C14
102
}
330
C14
100
AcDbXrecord
280
     1
102
RTVSPropertyOp0
 70
     1
102
RTVSPropertyOp1
 70
     1
102
RTVSPropertyOp2
 70
     1
102
RTVSPropertyOp3
 70
     1
102
RTVSPropertyOp4
 70
     1
102
RTVSPropertyOp5
 70
     1
102
RTVSPropertyOp6
 70
     1
102
RTVSPropertyOp7
 70
     1
102
RTVSPropertyOp8
 70
     1
102
RTVSPropertyOp9
 70
     1
102
RTVSPropertyOp10
 70
     1
102
RTVSPropertyOp11
 70
     1
102
RTVSPropertyOp12
 70
     1
102
RTVSPropertyOp13
 70
     1
102
RTVSPropertyOp14
 70
     1
102
RTVSPropertyOp15
 70
     1
102
RTVSPropertyOp16
 70
     1
102
RTVSPropertyOp17
 70
     1
102
RTVSPropertyOp18
 70
     1
102
RTVSPropertyOp19
 70
     1
102
RTVSPropertyOp20
 70
     1
102
RTVSPropertyOp21
 70
     1
102
RTVSPropertyOp22
 70
     1
102
RTVSPropertyOp23
 70
     1
102
RTVSPropertyOp24
 70
     1
102
RTVSPropertyOp25
 70
     1
102
RTVSPropertyOp26
 70
     1
102
RTVSPropertyOp27
 70
     1
102
RTVSPropertyOp28
 70
     1
102
RTVSPropertyOp29
 70
     1
102
RTVSPropertyOp30
 70
     1
102
RTVSPropertyOp31
 70
     1
102
RTVSPropertyOp32
 70
     1
102
RTVSPropertyOp33
 70
     1
102
RTVSPropertyOp34
 70
     1
102
RTVSPropertyOp35
 70
     1
102
RTVSPropertyOp36
 70
     1
102
RTVSPropertyOp37
 70
     1
102
RTVSPropertyOp38
 70
     1
102
RTVSPropertyOp39
 70
     1
102
RTVSPropertyOp40
 70
     1
102
RTVSPropertyOp41
 70
     1
102
RTVSPropertyOp42
 70
     1
102
RTVSPropertyOp43
 70
     1
102
RTVSPropertyOp44
 70
     1
102
RTVSPropertyOp45
 70
     1
102
RTVSPropertyOp46
 70
     1
102
RTVSPropertyOp47
 70
     1
102
RTVSPropertyOp48
 70
     1
102
RTVSPropertyOp49
 70
     1
102
RTVSPropertyOp50
 70
     1
102
RTVSPropertyOp51
 70
     0
102
RTVSPropertyOp52
 70
     0
102
RTVSPropertyOp53
 70
     1
102
RTVSPropertyOp54
 70
     1
102
RTVSPropertyOp55
 70
     1
102
RTVSPropertyOp56
 70
     1
102
RTVSPropertyOp57
 70
     1
102
RTVSPost2010Prop28
280
     0
102
RTVSPost2010PropOp28
 70
     1
102
RTVSPost2010Prop29
280
     1
102
RTVSPost2010PropOp29
 70
     1
102
RTVSPost2010Prop30
280
     1
102
RTVSPost2010PropOp30
 70
     1
102
RTVSPost2010Prop31
280
     0
102
RTVSPost2010PropOp31
 70
     1
102
RTVSPost2010Prop32
280
     0
102
RTVSPost2010PropOp32
 70
     1
102
RTVSPost2010Prop33
280
     0
102
RTVSPost2010PropOp33
 70
     1
102
RTVSPost2010Prop34
280
     0
102
RTVSPost2010PropOp34
 70
     1
102
RTVSPost2010Prop35
280
     0
102
RTVSPost2010PropOp35
 70
     1
102
RTVSPost2010Prop36
280
     0
102
RTVSPost2010PropOp36
 70
     1
102
RTVSPost2010Prop37
 90
       50
102
RTVSPost2010PropOp37
 70
     1
102
RTVSPost2010Prop38
140
0.0
102
RTVSPost2010PropOp38
 70
     1
102
RTVSPost2010Prop39
140
1.0
102
RTVSPost2010PropOp39
 70
     1
102
RTVSPost2010Prop40
 90
        0
102
RTVSPost2010PropOp40
 70
     1
102
RTVSPost2010Prop41ColorIndex
 90
       18
102
RTVSPost2010Prop41ColorRGB
 90
        0
102
RTVSPost2010PropOp41
 70
     1
102
RTVSPost2010Prop42
 90
       50
102
RTVSPost2010PropOp42
 70
     1
102
RTVSPost2010Prop43
 90
        3
102
RTVSPost2010PropOp43
 70
     1
102
RTVSPost2010Prop44ColorIndex
 90
        5
102
RTVSPost2010Prop44ColorRGB
 90
      255
102
RTVSPost2010PropOp44
 70
     1
102
RTVSPost2010Prop45
280
     0
102
RTVSPost2010PropOp45
 70
     1
102
RTVSPost2010Prop46
 90
       50
102
RTVSPost2010PropOp46
 70
     1
102
RTVSPost2010Prop47
 90
       50
102
RTVSPost2010PropOp47
 70
     1
102
RTVSPost2010Prop48
 90
       50
102
RTVSPost2010PropOp48
 70
     1
102
RTVSPost2010Prop49
280
     0
102
RTVSPost2010PropOp49
 70
     1
102
RTVSPost2010Prop50
 90
       50
102
RTVSPost2010PropOp50
 70
     1
102
RTVSPost2010Prop51ColorIndex
 90
      256
102
RTVSPost2010Prop51ColorRGB
 90
-16777216
102
RTVSPost2010PropOp51
 70
     0
102
RTVSPost2010Prop52
140
1.0
102
RTVSPost2010PropOp52
 70
     0
102
RTVSPost2010Prop53
 90
        2
102
RTVSPost2010PropOp53
 70
     1
102
RTVSPost2010Prop54
  1
strokes_ogs.tif
102
RTVSPost2010PropOp54
 70
     1
102
RTVSPost2010Prop55
280
     0
102
RTVSPost2010PropOp55
 70
     1
102
RTVSPost2010Prop56
140
1.0
102
RTVSPost2010PropOp56
 70
     1
102
RTVSPost2010Prop57
140
1.0
102
RTVSPost2010PropOp57
 70
     1
  0
XRECORD
  5
C17
102
{ACAD_REACTORS
330
C16
102
}
330
C16
100
AcDbXrecord
280
     1
102
RTVSPropertyOp0
 70
     1
102
RTVSPropertyOp1
 70
     1
102
RTVSPropertyOp2
 70
     1
102
RTVSPropertyOp3
 70
     1
102
RTVSPropertyOp4
 70
     1
102
RTVSPropertyOp5
 70
     1
102
RTVSPropertyOp6
 70
     1
102
RTVSPropertyOp7
 70
     1
102
RTVSPropertyOp8
 70
     1
102
RTVSPropertyOp9
 70
     1
102
RTVSPropertyOp10
 70
     1
102
RTVSPropertyOp11
 70
     1
102
RTVSPropertyOp12
 70
     1
102
RTVSPropertyOp13
 70
     1
102
RTVSPropertyOp14
 70
     1
102
RTVSPropertyOp15
 70
     1
102
RTVSPropertyOp16
 70
     1
102
RTVSPropertyOp17
 70
     1
102
RTVSPropertyOp18
 70
     1
102
RTVSPropertyOp19
 70
     1
102
RTVSPropertyOp20
 70
     1
102
RTVSPropertyOp21
 70
     1
102
RTVSPropertyOp22
 70
     1
102
RTVSPropertyOp23
 70
     1
102
RTVSPropertyOp24
 70
     1
102
RTVSPropertyOp25
 70
     1
102
RTVSPropertyOp26
 70
     1
102
RTVSPropertyOp27
 70
     1
102
RTVSPropertyOp28
 70
     1
102
RTVSPropertyOp29
 70
     1
102
RTVSPropertyOp30
 70
     1
102
RTVSPropertyOp31
 70
     1
102
RTVSPropertyOp32
 70
     1
102
RTVSPropertyOp33
 70
     1
102
RTVSPropertyOp34
 70
     1
102
RTVSPropertyOp35
 70
     1
102
RTVSPropertyOp36
 70
     1
102
RTVSPropertyOp37
 70
     1
102
RTVSPropertyOp38
 70
     1
102
RTVSPropertyOp39
 70
     1
102
RTVSPropertyOp40
 70
     1
102
RTVSPropertyOp41
 70
     1
102
RTVSPropertyOp42
 70
     1
102
RTVSPropertyOp43
 70
     1
102
RTVSPropertyOp44
 70
     1
102
RTVSPropertyOp45
 70
     1
102
RTVSPropertyOp46
 70
     1
102
RTVSPropertyOp47
 70
     1
102
RTVSPropertyOp48
 70
     1
102
RTVSPropertyOp49
 70
     1
102
RTVSPropertyOp50
 70
     1
102
RTVSPropertyOp51
 70
     0
102
RTVSPropertyOp52
 70
     0
102
RTVSPropertyOp53
 70
     1
102
RTVSPropertyOp54
 70
     1
102
RTVSPropertyOp55
 70
     1
102
RTVSPropertyOp56
 70
     1
102
RTVSPropertyOp57
 70
     1
102
RTVSPost2010Prop28
280
     0
102
RTVSPost2010PropOp28
 70
     1
102
RTVSPost2010Prop29
280
     1
102
RTVSPost2010PropOp29
 70
     1
102
RTVSPost2010Prop30
280
     1
102
RTVSPost2010PropOp30
 70
     1
102
RTVSPost2010Prop31
280
     0
102
RTVSPost2010PropOp31
 70
     1
102
RTVSPost2010Prop32
280
     0
102
RTVSPost2010PropOp32
 70
     1
102
RTVSPost2010Prop33
280
     0
102
RTVSPost2010PropOp33
 70
     1
102
RTVSPost2010Prop34
280
     0
102
RTVSPost2010PropOp34
 70
     1
102
RTVSPost2010Prop35
280
     0
102
RTVSPost2010PropOp35
 70
     1
102
RTVSPost2010Prop36
280
     0
102
RTVSPost2010PropOp36
 70
     1
102
RTVSPost2010Prop37
 90
       50
102
RTVSPost2010PropOp37
 70
     1
102
RTVSPost2010Prop38
140
0.0
102
RTVSPost2010PropOp38
 70
     1
102
RTVSPost2010Prop39
140
1.0
102
RTVSPost2010PropOp39
 70
     1
102
RTVSPost2010Prop40
 90
        0
102
RTVSPost2010PropOp40
 70
     1
102
RTVSPost2010Prop41ColorIndex
 90
       18
102
RTVSPost2010Prop41ColorRGB
 90
        0
102
RTVSPost2010PropOp41
 70
     1
102
RTVSPost2010Prop42
 90
       50
102
RTVSPost2010PropOp42
 70
     1
102
RTVSPost2010Prop43
 90
        3
102
RTVSPost2010PropOp43
 70
     1
102
RTVSPost2010Prop44ColorIndex
 90
        5
102
RTVSPost2010Prop44ColorRGB
 90
      255
102
RTVSPost2010PropOp44
 70
     1
102
RTVSPost2010Prop45
280
     0
102
RTVSPost2010PropOp45
 70
     1
102
RTVSPost2010Prop46
 90
       50
102
RTVSPost2010PropOp46
 70
     1
102
RTVSPost2010Prop47
 90
       50
102
RTVSPost2010PropOp47
 70
     1
102
RTVSPost2010Prop48
 90
       50
102
RTVSPost2010PropOp48
 70
     1
102
RTVSPost2010Prop49
280
     0
102
RTVSPost2010PropOp49
 70
     1
102
RTVSPost2010Prop50
 90
       50
102
RTVSPost2010PropOp50
 70
     1
102
RTVSPost2010Prop51ColorIndex
 90
      256
102
RTVSPost2010Prop51ColorRGB
 90
-16777216
102
RTVSPost2010PropOp51
 70
     0
102
RTVSPost2010Prop52
140
1.0
102
RTVSPost2010PropOp52
 70
     0
102
RTVSPost2010Prop53
 90
        2
102
RTVSPost2010PropOp53
 70
     1
102
RTVSPost2010Prop54
  1
strokes_ogs.tif
102
RTVSPost2010PropOp54
 70
     1
102
RTVSPost2010Prop55
280
     0
102
RTVSPost2010PropOp55
 70
     1
102
RTVSPost2010Prop56
140
1.0
102
RTVSPost2010PropOp56
 70
     1
102
RTVSPost2010Prop57
140
1.0
102
RTVSPost2010PropOp57
 70
     1
  0
XRECORD
  5
C19
102
{ACAD_REACTORS
330
C18
102
}
330
C18
100
AcDbXrecord
280
     1
102
RTVSPropertyOp0
 70
     1
102
RTVSPropertyOp1
 70
     1
102
RTVSPropertyOp2
 70
     1
102
RTVSPropertyOp3
 70
     1
102
RTVSPropertyOp4
 70
     1
102
RTVSPropertyOp5
 70
     1
102
RTVSPropertyOp6
 70
     1
102
RTVSPropertyOp7
 70
     1
102
RTVSPropertyOp8
 70
     1
102
RTVSPropertyOp9
 70
     1
102
RTVSPropertyOp10
 70
     1
102
RTVSPropertyOp11
 70
     1
102
RTVSPropertyOp12
 70
     1
102
RTVSPropertyOp13
 70
     1
102
RTVSPropertyOp14
 70
     1
102
RTVSPropertyOp15
 70
     1
102
RTVSPropertyOp16
 70
     1
102
RTVSPropertyOp17
 70
     1
102
RTVSPropertyOp18
 70
     1
102
RTVSPropertyOp19
 70
     1
102
RTVSPropertyOp20
 70
     1
102
RTVSPropertyOp21
 70
     1
102
RTVSPropertyOp22
 70
     1
102
RTVSPropertyOp23
 70
     1
102
RTVSPropertyOp24
 70
     1
102
RTVSPropertyOp25
 70
     1
102
RTVSPropertyOp26
 70
     1
102
RTVSPropertyOp27
 70
     1
102
RTVSPropertyOp28
 70
     1
102
RTVSPropertyOp29
 70
     1
102
RTVSPropertyOp30
 70
     1
102
RTVSPropertyOp31
 70
     1
102
RTVSPropertyOp32
 70
     1
102
RTVSPropertyOp33
 70
     1
102
RTVSPropertyOp34
 70
     1
102
RTVSPropertyOp35
 70
     1
102
RTVSPropertyOp36
 70
     1
102
RTVSPropertyOp37
 70
     1
102
RTVSPropertyOp38
 70
     1
102
RTVSPropertyOp39
 70
     1
102
RTVSPropertyOp40
 70
     1
102
RTVSPropertyOp41
 70
     1
102
RTVSPropertyOp42
 70
     1
102
RTVSPropertyOp43
 70
     1
102
RTVSPropertyOp44
 70
     1
102
RTVSPropertyOp45
 70
     1
102
RTVSPropertyOp46
 70
     1
102
RTVSPropertyOp47
 70
     1
102
RTVSPropertyOp48
 70
     1
102
RTVSPropertyOp49
 70
     1
102
RTVSPropertyOp50
 70
     1
102
RTVSPropertyOp51
 70
     0
102
RTVSPropertyOp52
 70
     0
102
RTVSPropertyOp53
 70
     1
102
RTVSPropertyOp54
 70
     1
102
RTVSPropertyOp55
 70
     1
102
RTVSPropertyOp56
 70
     1
102
RTVSPropertyOp57
 70
     1
102
RTVSPost2010Prop28
280
     0
102
RTVSPost2010PropOp28
 70
     1
102
RTVSPost2010Prop29
280
     1
102
RTVSPost2010PropOp29
 70
     1
102
RTVSPost2010Prop30
280
     1
102
RTVSPost2010PropOp30
 70
     1
102
RTVSPost2010Prop31
280
     0
102
RTVSPost2010PropOp31
 70
     1
102
RTVSPost2010Prop32
280
     0
102
RTVSPost2010PropOp32
 70
     1
102
RTVSPost2010Prop33
280
     0
102
RTVSPost2010PropOp33
 70
     1
102
RTVSPost2010Prop34
280
     0
102
RTVSPost2010PropOp34
 70
     1
102
RTVSPost2010Prop35
280
     0
102
RTVSPost2010PropOp35
 70
     1
102
RTVSPost2010Prop36
280
     0
102
RTVSPost2010PropOp36
 70
     1
102
RTVSPost2010Prop37
 90
       50
102
RTVSPost2010PropOp37
 70
     1
102
RTVSPost2010Prop38
140
0.0
102
RTVSPost2010PropOp38
 70
     1
102
RTVSPost2010Prop39
140
1.0
102
RTVSPost2010PropOp39
 70
     1
102
RTVSPost2010Prop40
 90
        0
102
RTVSPost2010PropOp40
 70
     1
102
RTVSPost2010Prop41ColorIndex
 90
       18
102
RTVSPost2010Prop41ColorRGB
 90
        0
102
RTVSPost2010PropOp41
 70
     1
102
RTVSPost2010Prop42
 90
       50
102
RTVSPost2010PropOp42
 70
     1
102
RTVSPost2010Prop43
 90
        3
102
RTVSPost2010PropOp43
 70
     1
102
RTVSPost2010Prop44ColorIndex
 90
        5
102
RTVSPost2010Prop44ColorRGB
 90
      255
102
RTVSPost2010PropOp44
 70
     1
102
RTVSPost2010Prop45
280
     0
102
RTVSPost2010PropOp45
 70
     1
102
RTVSPost2010Prop46
 90
       50
102
RTVSPost2010PropOp46
 70
     1
102
RTVSPost2010Prop47
 90
       50
102
RTVSPost2010PropOp47
 70
     1
102
RTVSPost2010Prop48
 90
       50
102
RTVSPost2010PropOp48
 70
     1
102
RTVSPost2010Prop49
280
     0
102
RTVSPost2010PropOp49
 70
     1
102
RTVSPost2010Prop50
 90
       50
102
RTVSPost2010PropOp50
 70
     1
102
RTVSPost2010Prop51ColorIndex
 90
      256
102
RTVSPost2010Prop51ColorRGB
 90
-16777216
102
RTVSPost2010PropOp51
 70
     0
102
RTVSPost2010Prop52
140
1.0
102
RTVSPost2010PropOp52
 70
     0
102
RTVSPost2010Prop53
 90
        2
102
RTVSPost2010PropOp53
 70
     1
102
RTVSPost2010Prop54
  1
strokes_ogs.tif
102
RTVSPost2010PropOp54
 70
     1
102
RTVSPost2010Prop55
280
     0
102
RTVSPost2010PropOp55
 70
     1
102
RTVSPost2010Prop56
140
1.0
102
RTVSPost2010PropOp56
 70
     1
102
RTVSPost2010Prop57
140
1.0
102
RTVSPost2010PropOp57
 70
     1
  0
XRECORD
  5
C1B
102
{ACAD_REACTORS
330
C1A
102
}
330
C1A
100
AcDbXrecord
280
     1
102
RTVSPropertyOp0
 70
     0
102
RTVSPropertyOp1
 70
     0
102
RTVSPropertyOp2
 70
     0
102
RTVSPropertyOp3
 70
     0
102
RTVSPropertyOp4
 70
     0
102
RTVSPropertyOp5
 70
     0
102
RTVSPropertyOp6
 70
     0
102
RTVSPropertyOp7
 70
     0
102
RTVSPropertyOp8
 70
     0
102
RTVSPropertyOp9
 70
     0
102
RTVSPropertyOp10
 70
     0
102
RTVSPropertyOp11
 70
     0
102
RTVSPropertyOp12
 70
     0
102
RTVSPropertyOp13
 70
     0
102
RTVSPropertyOp14
 70
     2
102
RTVSPropertyOp15
 70
     0
102
RTVSPropertyOp16
 70
     0
102
RTVSPropertyOp17
 70
     0
102
RTVSPropertyOp18
 70
     0
102
RTVSPropertyOp19
 70
     0
102
RTVSPropertyOp20
 70
     0
102
RTVSPropertyOp21
 70
     0
102
RTVSPropertyOp22
 70
     0
102
RTVSPropertyOp23
 70
     0
102
RTVSPropertyOp24
 70
     0
102
RTVSPropertyOp25
 70
     0
102
RTVSPropertyOp26
 70
     0
102
RTVSPropertyOp27
 70
     0
102
RTVSPropertyOp28
 70
     0
102
RTVSPropertyOp29
 70
     0
102
RTVSPropertyOp30
 70
     0
102
RTVSPropertyOp31
 70
     0
102
RTVSPropertyOp32
 70
     0
102
RTVSPropertyOp33
 70
     0
102
RTVSPropertyOp34
 70
     0
102
RTVSPropertyOp35
 70
     0
102
RTVSPropertyOp36
 70
     0
102
RTVSPropertyOp37
 70
     0
102
RTVSPropertyOp38
 70
     0
102
RTVSPropertyOp39
 70
     0
102
RTVSPropertyOp40
 70
     0
102
RTVSPropertyOp41
 70
     0
102
RTVSPropertyOp42
 70
     0
102
RTVSPropertyOp43
 70
     0
102
RTVSPropertyOp44
 70
     0
102
RTVSPropertyOp45
 70
     0
102
RTVSPropertyOp46
 70
     0
102
RTVSPropertyOp47
 70
     0
102
RTVSPropertyOp48
 70
     0
102
RTVSPropertyOp49
 70
     0
102
RTVSPropertyOp50
 70
     0
102
RTVSPropertyOp51
 70
     0
102
RTVSPropertyOp52
 70
     0
102
RTVSPropertyOp53
 70
     0
102
RTVSPropertyOp54
 70
     0
102
RTVSPropertyOp55
 70
     0
102
RTVSPropertyOp56
 70
     0
102
RTVSPropertyOp57
 70
     0
102
RTVSPost2010Prop28
280
     0
102
RTVSPost2010PropOp28
 70
     0
102
RTVSPost2010Prop29
280
     1
102
RTVSPost2010PropOp29
 70
     0
102
RTVSPost2010Prop30
280
     1
102
RTVSPost2010PropOp30
 70
     0
102
RTVSPost2010Prop31
280
     0
102
RTVSPost2010PropOp31
 70
     0
102
RTVSPost2010Prop32
280
     0
102
RTVSPost2010PropOp32
 70
     0
102
RTVSPost2010Prop33
280
     0
102
RTVSPost2010PropOp33
 70
     0
102
RTVSPost2010Prop34
280
     0
102
RTVSPost2010PropOp34
 70
     0
102
RTVSPost2010Prop35
280
     0
102
RTVSPost2010PropOp35
 70
     0
102
RTVSPost2010Prop36
280
     0
102
RTVSPost2010PropOp36
 70
     0
102
RTVSPost2010Prop37
 90
       50
102
RTVSPost2010PropOp37
 70
     0
102
RTVSPost2010Prop38
140
0.0
102
RTVSPost2010PropOp38
 70
     0
102
RTVSPost2010Prop39
140
1.0
102
RTVSPost2010PropOp39
 70
     0
102
RTVSPost2010Prop40
 90
        0
102
RTVSPost2010PropOp40
 70
     0
102
RTVSPost2010Prop41ColorIndex
 90
       18
102
RTVSPost2010Prop41ColorRGB
 90
        0
102
RTVSPost2010PropOp41
 70
     0
102
RTVSPost2010Prop42
 90
       50
102
RTVSPost2010PropOp42
 70
     0
102
RTVSPost2010Prop43
 90
        3
102
RTVSPost2010PropOp43
 70
     0
102
RTVSPost2010Prop44ColorIndex
 90
        5
102
RTVSPost2010Prop44ColorRGB
 90
      255
102
RTVSPost2010PropOp44
 70
     0
102
RTVSPost2010Prop45
280
     0
102
RTVSPost2010PropOp45
 70
     0
102
RTVSPost2010Prop46
 90
       50
102
RTVSPost2010PropOp46
 70
     0
102
RTVSPost2010Prop47
 90
       50
102
RTVSPost2010PropOp47
 70
     0
102
RTVSPost2010Prop48
 90
       50
102
RTVSPost2010PropOp48
 70
     0
102
RTVSPost2010Prop49
280
     0
102
RTVSPost2010PropOp49
 70
     0
102
RTVSPost2010Prop50
 90
       50
102
RTVSPost2010PropOp50
 70
     0
102
RTVSPost2010Prop51ColorIndex
 90
      256
102
RTVSPost2010Prop51ColorRGB
 90
-16777216
102
RTVSPost2010PropOp51
 70
     0
102
RTVSPost2010Prop52
140
1.0
102
RTVSPost2010PropOp52
 70
     0
102
RTVSPost2010Prop53
 90
        2
102
RTVSPost2010PropOp53
 70
     0
102
RTVSPost2010Prop54
  1
strokes_ogs.tif
102
RTVSPost2010PropOp54
 70
     0
102
RTVSPost2010Prop55
280
     0
102
RTVSPost2010PropOp55
 70
     0
102
RTVSPost2010Prop56
140
1.0
102
RTVSPost2010PropOp56
 70
     0
102
RTVSPost2010Prop57
140
1.0
102
RTVSPost2010PropOp57
 70
     0
  0
XRECORD
  5
C1D
102
{ACAD_REACTORS
330
C1C
102
}
330
C1C
100
AcDbXrecord
280
     1
102
RTVSPropertyOp0
 70
     1
102
RTVSPropertyOp1
 70
     1
102
RTVSPropertyOp2
 70
     1
102
RTVSPropertyOp3
 70
     1
102
RTVSPropertyOp4
 70
     1
102
RTVSPropertyOp5
 70
     1
102
RTVSPropertyOp6
 70
     1
102
RTVSPropertyOp7
 70
     1
102
RTVSPropertyOp8
 70
     1
102
RTVSPropertyOp9
 70
     1
102
RTVSPropertyOp10
 70
     1
102
RTVSPropertyOp11
 70
     1
102
RTVSPropertyOp12
 70
     1
102
RTVSPropertyOp13
 70
     1
102
RTVSPropertyOp14
 70
     1
102
RTVSPropertyOp15
 70
     1
102
RTVSPropertyOp16
 70
     1
102
RTVSPropertyOp17
 70
     1
102
RTVSPropertyOp18
 70
     1
102
RTVSPropertyOp19
 70
     1
102
RTVSPropertyOp20
 70
     1
102
RTVSPropertyOp21
 70
     1
102
RTVSPropertyOp22
 70
     1
102
RTVSPropertyOp23
 70
     1
102
RTVSPropertyOp24
 70
     1
102
RTVSPropertyOp25
 70
     1
102
RTVSPropertyOp26
 70
     1
102
RTVSPropertyOp27
 70
     1
102
RTVSPropertyOp28
 70
     1
102
RTVSPropertyOp29
 70
     1
102
RTVSPropertyOp30
 70
     1
102
RTVSPropertyOp31
 70
     1
102
RTVSPropertyOp32
 70
     1
102
RTVSPropertyOp33
 70
     1
102
RTVSPropertyOp34
 70
     1
102
RTVSPropertyOp35
 70
     1
102
RTVSPropertyOp36
 70
     1
102
RTVSPropertyOp37
 70
     1
102
RTVSPropertyOp38
 70
     1
102
RTVSPropertyOp39
 70
     1
102
RTVSPropertyOp40
 70
     1
102
RTVSPropertyOp41
 70
     1
102
RTVSPropertyOp42
 70
     1
102
RTVSPropertyOp43
 70
     1
102
RTVSPropertyOp44
 70
     1
102
RTVSPropertyOp45
 70
     1
102
RTVSPropertyOp46
 70
     1
102
RTVSPropertyOp47
 70
     1
102
RTVSPropertyOp48
 70
     1
102
RTVSPropertyOp49
 70
     1
102
RTVSPropertyOp50
 70
     1
102
RTVSPropertyOp51
 70
     0
102
RTVSPropertyOp52
 70
     0
102
RTVSPropertyOp53
 70
     1
102
RTVSPropertyOp54
 70
     1
102
RTVSPropertyOp55
 70
     1
102
RTVSPropertyOp56
 70
     1
102
RTVSPropertyOp57
 70
     1
102
RTVSPost2010Prop28
280
     0
102
RTVSPost2010PropOp28
 70
     1
102
RTVSPost2010Prop29
280
     1
102
RTVSPost2010PropOp29
 70
     1
102
RTVSPost2010Prop30
280
     1
102
RTVSPost2010PropOp30
 70
     1
102
RTVSPost2010Prop31
280
     0
102
RTVSPost2010PropOp31
 70
     1
102
RTVSPost2010Prop32
280
     0
102
RTVSPost2010PropOp32
 70
     1
102
RTVSPost2010Prop33
280
     0
102
RTVSPost2010PropOp33
 70
     1
102
RTVSPost2010Prop34
280
     0
102
RTVSPost2010PropOp34
 70
     1
102
RTVSPost2010Prop35
280
     0
102
RTVSPost2010PropOp35
 70
     1
102
RTVSPost2010Prop36
280
     0
102
RTVSPost2010PropOp36
 70
     1
102
RTVSPost2010Prop37
 90
       50
102
RTVSPost2010PropOp37
 70
     1
102
RTVSPost2010Prop38
140
0.0
102
RTVSPost2010PropOp38
 70
     1
102
RTVSPost2010Prop39
140
1.0
102
RTVSPost2010PropOp39
 70
     1
102
RTVSPost2010Prop40
 90
        0
102
RTVSPost2010PropOp40
 70
     1
102
RTVSPost2010Prop41ColorIndex
 90
       18
102
RTVSPost2010Prop41ColorRGB
 90
        0
102
RTVSPost2010PropOp41
 70
     1
102
RTVSPost2010Prop42
 90
       50
102
RTVSPost2010PropOp42
 70
     1
102
RTVSPost2010Prop43
 90
        3
102
RTVSPost2010PropOp43
 70
     1
102
RTVSPost2010Prop44ColorIndex
 90
        5
102
RTVSPost2010Prop44ColorRGB
 90
      255
102
RTVSPost2010PropOp44
 70
     1
102
RTVSPost2010Prop45
280
     0
102
RTVSPost2010PropOp45
 70
     1
102
RTVSPost2010Prop46
 90
       50
102
RTVSPost2010PropOp46
 70
     1
102
RTVSPost2010Prop47
 90
       50
102
RTVSPost2010PropOp47
 70
     1
102
RTVSPost2010Prop48
 90
       50
102
RTVSPost2010PropOp48
 70
     1
102
RTVSPost2010Prop49
280
     0
102
RTVSPost2010PropOp49
 70
     1
102
RTVSPost2010Prop50
 90
       50
102
RTVSPost2010PropOp50
 70
     1
102
RTVSPost2010Prop51ColorIndex
 90
      256
102
RTVSPost2010Prop51ColorRGB
 90
-16777216
102
RTVSPost2010PropOp51
 70
     0
102
RTVSPost2010Prop52
140
1.0
102
RTVSPost2010PropOp52
 70
     0
102
RTVSPost2010Prop53
 90
        2
102
RTVSPost2010PropOp53
 70
     1
102
RTVSPost2010Prop54
  1
strokes_ogs.tif
102
RTVSPost2010PropOp54
 70
     1
102
RTVSPost2010Prop55
280
     0
102
RTVSPost2010PropOp55
 70
     1
102
RTVSPost2010Prop56
140
1.0
102
RTVSPost2010PropOp56
 70
     1
102
RTVSPost2010Prop57
140
1.0
102
RTVSPost2010PropOp57
 70
     1
  0
XRECORD
  5
C1F
102
{ACAD_REACTORS
330
C1E
102
}
330
C1E
100
AcDbXrecord
280
     1
102
RTVSPropertyOp0
 70
     0
102
RTVSPropertyOp1
 70
     0
102
RTVSPropertyOp2
 70
     0
102
RTVSPropertyOp3
 70
     0
102
RTVSPropertyOp4
 70
     0
102
RTVSPropertyOp5
 70
     0
102
RTVSPropertyOp6
 70
     0
102
RTVSPropertyOp7
 70
     0
102
RTVSPropertyOp8
 70
     0
102
RTVSPropertyOp9
 70
     0
102
RTVSPropertyOp10
 70
     0
102
RTVSPropertyOp11
 70
     0
102
RTVSPropertyOp12
 70
     0
102
RTVSPropertyOp13
 70
     0
102
RTVSPropertyOp14
 70
     2
102
RTVSPropertyOp15
 70
     0
102
RTVSPropertyOp16
 70
     0
102
RTVSPropertyOp17
 70
     0
102
RTVSPropertyOp18
 70
     0
102
RTVSPropertyOp19
 70
     0
102
RTVSPropertyOp20
 70
     0
102
RTVSPropertyOp21
 70
     0
102
RTVSPropertyOp22
 70
     0
102
RTVSPropertyOp23
 70
     0
102
RTVSPropertyOp24
 70
     0
102
RTVSPropertyOp25
 70
     0
102
RTVSPropertyOp26
 70
     0
102
RTVSPropertyOp27
 70
     0
102
RTVSPropertyOp28
 70
     0
102
RTVSPropertyOp29
 70
     0
102
RTVSPropertyOp30
 70
     0
102
RTVSPropertyOp31
 70
     0
102
RTVSPropertyOp32
 70
     0
102
RTVSPropertyOp33
 70
     0
102
RTVSPropertyOp34
 70
     0
102
RTVSPropertyOp35
 70
     0
102
RTVSPropertyOp36
 70
     0
102
RTVSPropertyOp37
 70
     0
102
RTVSPropertyOp38
 70
     0
102
RTVSPropertyOp39
 70
     0
102
RTVSPropertyOp40
 70
     0
102
RTVSPropertyOp41
 70
     0
102
RTVSPropertyOp42
 70
     0
102
RTVSPropertyOp43
 70
     0
102
RTVSPropertyOp44
 70
     0
102
RTVSPropertyOp45
 70
     0
102
RTVSPropertyOp46
 70
     0
102
RTVSPropertyOp47
 70
     0
102
RTVSPropertyOp48
 70
     0
102
RTVSPropertyOp49
 70
     0
102
RTVSPropertyOp50
 70
     0
102
RTVSPropertyOp51
 70
     0
102
RTVSPropertyOp52
 70
     0
102
RTVSPropertyOp53
 70
     0
102
RTVSPropertyOp54
 70
     0
102
RTVSPropertyOp55
 70
     0
102
RTVSPropertyOp56
 70
     0
102
RTVSPropertyOp57
 70
     0
102
RTVSPost2010Prop28
280
     0
102
RTVSPost2010PropOp28
 70
     0
102
RTVSPost2010Prop29
280
     1
102
RTVSPost2010PropOp29
 70
     0
102
RTVSPost2010Prop30
280
     1
102
RTVSPost2010PropOp30
 70
     0
102
RTVSPost2010Prop31
280
     0
102
RTVSPost2010PropOp31
 70
     0
102
RTVSPost2010Prop32
280
     0
102
RTVSPost2010PropOp32
 70
     0
102
RTVSPost2010Prop33
280
     0
102
RTVSPost2010PropOp33
 70
     0
102
RTVSPost2010Prop34
280
     0
102
RTVSPost2010PropOp34
 70
     0
102
RTVSPost2010Prop35
280
     0
102
RTVSPost2010PropOp35
 70
     0
102
RTVSPost2010Prop36
280
     0
102
RTVSPost2010PropOp36
 70
     0
102
RTVSPost2010Prop37
 90
       50
102
RTVSPost2010PropOp37
 70
     0
102
RTVSPost2010Prop38
140
0.0
102
RTVSPost2010PropOp38
 70
     0
102
RTVSPost2010Prop39
140
1.0
102
RTVSPost2010PropOp39
 70
     0
102
RTVSPost2010Prop40
 90
        0
102
RTVSPost2010PropOp40
 70
     0
102
RTVSPost2010Prop41ColorIndex
 90
       18
102
RTVSPost2010Prop41ColorRGB
 90
        0
102
RTVSPost2010PropOp41
 70
     0
102
RTVSPost2010Prop42
 90
       50
102
RTVSPost2010PropOp42
 70
     0
102
RTVSPost2010Prop43
 90
        3
102
RTVSPost2010PropOp43
 70
     0
102
RTVSPost2010Prop44ColorIndex
 90
        5
102
RTVSPost2010Prop44ColorRGB
 90
      255
102
RTVSPost2010PropOp44
 70
     0
102
RTVSPost2010Prop45
280
     0
102
RTVSPost2010PropOp45
 70
     0
102
RTVSPost2010Prop46
 90
       50
102
RTVSPost2010PropOp46
 70
     0
102
RTVSPost2010Prop47
 90
       50
102
RTVSPost2010PropOp47
 70
     0
102
RTVSPost2010Prop48
 90
       50
102
RTVSPost2010PropOp48
 70
     0
102
RTVSPost2010Prop49
280
     0
102
RTVSPost2010PropOp49
 70
     0
102
RTVSPost2010Prop50
 90
       50
102
RTVSPost2010PropOp50
 70
     0
102
RTVSPost2010Prop51ColorIndex
 90
      256
102
RTVSPost2010Prop51ColorRGB
 90
-16777216
102
RTVSPost2010PropOp51
 70
     0
102
RTVSPost2010Prop52
140
1.0
102
RTVSPost2010PropOp52
 70
     0
102
RTVSPost2010Prop53
 90
        2
102
RTVSPost2010PropOp53
 70
     0
102
RTVSPost2010Prop54
  1
strokes_ogs.tif
102
RTVSPost2010PropOp54
 70
     0
102
RTVSPost2010Prop55
280
     0
102
RTVSPost2010PropOp55
 70
     0
102
RTVSPost2010Prop56
140
1.0
102
RTVSPost2010PropOp56
 70
     0
102
RTVSPost2010Prop57
140
1.0
102
RTVSPost2010PropOp57
 70
     0
  0
XRECORD
  5
C21
102
{ACAD_REACTORS
330
C20
102
}
330
C20
100
AcDbXrecord
280
     1
102
RTVSPropertyOp0
 70
     1
102
RTVSPropertyOp1
 70
     1
102
RTVSPropertyOp2
 70
     1
102
RTVSPropertyOp3
 70
     1
102
RTVSPropertyOp4
 70
     1
102
RTVSPropertyOp5
 70
     1
102
RTVSPropertyOp6
 70
     1
102
RTVSPropertyOp7
 70
     1
102
RTVSPropertyOp8
 70
     1
102
RTVSPropertyOp9
 70
     1
102
RTVSPropertyOp10
 70
     1
102
RTVSPropertyOp11
 70
     1
102
RTVSPropertyOp12
 70
     1
102
RTVSPropertyOp13
 70
     1
102
RTVSPropertyOp14
 70
     1
102
RTVSPropertyOp15
 70
     1
102
RTVSPropertyOp16
 70
     1
102
RTVSPropertyOp17
 70
     1
102
RTVSPropertyOp18
 70
     1
102
RTVSPropertyOp19
 70
     1
102
RTVSPropertyOp20
 70
     1
102
RTVSPropertyOp21
 70
     1
102
RTVSPropertyOp22
 70
     1
102
RTVSPropertyOp23
 70
     1
102
RTVSPropertyOp24
 70
     1
102
RTVSPropertyOp25
 70
     1
102
RTVSPropertyOp26
 70
     1
102
RTVSPropertyOp27
 70
     1
102
RTVSPropertyOp28
 70
     1
102
RTVSPropertyOp29
 70
     1
102
RTVSPropertyOp30
 70
     1
102
RTVSPropertyOp31
 70
     1
102
RTVSPropertyOp32
 70
     1
102
RTVSPropertyOp33
 70
     1
102
RTVSPropertyOp34
 70
     1
102
RTVSPropertyOp35
 70
     1
102
RTVSPropertyOp36
 70
     1
102
RTVSPropertyOp37
 70
     1
102
RTVSPropertyOp38
 70
     1
102
RTVSPropertyOp39
 70
     1
102
RTVSPropertyOp40
 70
     1
102
RTVSPropertyOp41
 70
     1
102
RTVSPropertyOp42
 70
     1
102
RTVSPropertyOp43
 70
     1
102
RTVSPropertyOp44
 70
     1
102
RTVSPropertyOp45
 70
     1
102
RTVSPropertyOp46
 70
     1
102
RTVSPropertyOp47
 70
     1
102
RTVSPropertyOp48
 70
     1
102
RTVSPropertyOp49
 70
     1
102
RTVSPropertyOp50
 70
     1
102
RTVSPropertyOp51
 70
     0
102
RTVSPropertyOp52
 70
     0
102
RTVSPropertyOp53
 70
     1
102
RTVSPropertyOp54
 70
     1
102
RTVSPropertyOp55
 70
     1
102
RTVSPropertyOp56
 70
     1
102
RTVSPropertyOp57
 70
     1
102
RTVSPost2010Prop28
280
     0
102
RTVSPost2010PropOp28
 70
     1
102
RTVSPost2010Prop29
280
     1
102
RTVSPost2010PropOp29
 70
     1
102
RTVSPost2010Prop30
280
     1
102
RTVSPost2010PropOp30
 70
     1
102
RTVSPost2010Prop31
280
     0
102
RTVSPost2010PropOp31
 70
     1
102
RTVSPost2010Prop32
280
     0
102
RTVSPost2010PropOp32
 70
     1
102
RTVSPost2010Prop33
280
     0
102
RTVSPost2010PropOp33
 70
     1
102
RTVSPost2010Prop34
280
     0
102
RTVSPost2010PropOp34
 70
     1
102
RTVSPost2010Prop35
280
     0
102
RTVSPost2010PropOp35
 70
     1
102
RTVSPost2010Prop36
280
     0
102
RTVSPost2010PropOp36
 70
     1
102
RTVSPost2010Prop37
 90
       50
102
RTVSPost2010PropOp37
 70
     1
102
RTVSPost2010Prop38
140
0.0
102
RTVSPost2010PropOp38
 70
     1
102
RTVSPost2010Prop39
140
1.0
102
RTVSPost2010PropOp39
 70
     1
102
RTVSPost2010Prop40
 90
        0
102
RTVSPost2010PropOp40
 70
     1
102
RTVSPost2010Prop41ColorIndex
 90
       18
102
RTVSPost2010Prop41ColorRGB
 90
        0
102
RTVSPost2010PropOp41
 70
     1
102
RTVSPost2010Prop42
 90
       50
102
RTVSPost2010PropOp42
 70
     1
102
RTVSPost2010Prop43
 90
        3
102
RTVSPost2010PropOp43
 70
     1
102
RTVSPost2010Prop44ColorIndex
 90
        5
102
RTVSPost2010Prop44ColorRGB
 90
      255
102
RTVSPost2010PropOp44
 70
     1
102
RTVSPost2010Prop45
280
     0
102
RTVSPost2010PropOp45
 70
     1
102
RTVSPost2010Prop46
 90
       50
102
RTVSPost2010PropOp46
 70
     1
102
RTVSPost2010Prop47
 90
       50
102
RTVSPost2010PropOp47
 70
     1
102
RTVSPost2010Prop48
 90
       50
102
RTVSPost2010PropOp48
 70
     1
102
RTVSPost2010Prop49
280
     0
102
RTVSPost2010PropOp49
 70
     1
102
RTVSPost2010Prop50
 90
       50
102
RTVSPost2010PropOp50
 70
     1
102
RTVSPost2010Prop51ColorIndex
 90
      256
102
RTVSPost2010Prop51ColorRGB
 90
-16777216
102
RTVSPost2010PropOp51
 70
     0
102
RTVSPost2010Prop52
140
1.0
102
RTVSPost2010PropOp52
 70
     0
102
RTVSPost2010Prop53
 90
        2
102
RTVSPost2010PropOp53
 70
     1
102
RTVSPost2010Prop54
  1
strokes_ogs.tif
102
RTVSPost2010PropOp54
 70
     1
102
RTVSPost2010Prop55
280
     0
102
RTVSPost2010PropOp55
 70
     1
102
RTVSPost2010Prop56
140
1.0
102
RTVSPost2010PropOp56
 70
     1
102
RTVSPost2010Prop57
140
1.0
102
RTVSPost2010PropOp57
 70
     1
  0
XRECORD
  5
C23
102
{ACAD_REACTORS
330
C22
102
}
330
C22
100
AcDbXrecord
280
     1
102
RTVSPropertyOp0
 70
     1
102
RTVSPropertyOp1
 70
     1
102
RTVSPropertyOp2
 70
     1
102
RTVSPropertyOp3
 70
     1
102
RTVSPropertyOp4
 70
     1
102
RTVSPropertyOp5
 70
     1
102
RTVSPropertyOp6
 70
     1
102
RTVSPropertyOp7
 70
     1
102
RTVSPropertyOp8
 70
     1
102
RTVSPropertyOp9
 70
     1
102
RTVSPropertyOp10
 70
     1
102
RTVSPropertyOp11
 70
     1
102
RTVSPropertyOp12
 70
     1
102
RTVSPropertyOp13
 70
     1
102
RTVSPropertyOp14
 70
     1
102
RTVSPropertyOp15
 70
     1
102
RTVSPropertyOp16
 70
     1
102
RTVSPropertyOp17
 70
     1
102
RTVSPropertyOp18
 70
     1
102
RTVSPropertyOp19
 70
     1
102
RTVSPropertyOp20
 70
     1
102
RTVSPropertyOp21
 70
     1
102
RTVSPropertyOp22
 70
     1
102
RTVSPropertyOp23
 70
     1
102
RTVSPropertyOp24
 70
     1
102
RTVSPropertyOp25
 70
     1
102
RTVSPropertyOp26
 70
     1
102
RTVSPropertyOp27
 70
     1
102
RTVSPropertyOp28
 70
     1
102
RTVSPropertyOp29
 70
     1
102
RTVSPropertyOp30
 70
     1
102
RTVSPropertyOp31
 70
     1
102
RTVSPropertyOp32
 70
     1
102
RTVSPropertyOp33
 70
     1
102
RTVSPropertyOp34
 70
     1
102
RTVSPropertyOp35
 70
     1
102
RTVSPropertyOp36
 70
     1
102
RTVSPropertyOp37
 70
     1
102
RTVSPropertyOp38
 70
     1
102
RTVSPropertyOp39
 70
     1
102
RTVSPropertyOp40
 70
     1
102
RTVSPropertyOp41
 70
     1
102
RTVSPropertyOp42
 70
     1
102
RTVSPropertyOp43
 70
     1
102
RTVSPropertyOp44
 70
     1
102
RTVSPropertyOp45
 70
     1
102
RTVSPropertyOp46
 70
     1
102
RTVSPropertyOp47
 70
     1
102
RTVSPropertyOp48
 70
     1
102
RTVSPropertyOp49
 70
     1
102
RTVSPropertyOp50
 70
     1
102
RTVSPropertyOp51
 70
     0
102
RTVSPropertyOp52
 70
     0
102
RTVSPropertyOp53
 70
     1
102
RTVSPropertyOp54
 70
     1
102
RTVSPropertyOp55
 70
     1
102
RTVSPropertyOp56
 70
     1
102
RTVSPropertyOp57
 70
     1
102
RTVSPost2010Prop28
280
     0
102
RTVSPost2010PropOp28
 70
     1
102
RTVSPost2010Prop29
280
     1
102
RTVSPost2010PropOp29
 70
     1
102
RTVSPost2010Prop30
280
     1
102
RTVSPost2010PropOp30
 70
     1
102
RTVSPost2010Prop31
280
     0
102
RTVSPost2010PropOp31
 70
     1
102
RTVSPost2010Prop32
280
     0
102
RTVSPost2010PropOp32
 70
     1
102
RTVSPost2010Prop33
280
     0
102
RTVSPost2010PropOp33
 70
     1
102
RTVSPost2010Prop34
280
     0
102
RTVSPost2010PropOp34
 70
     1
102
RTVSPost2010Prop35
280
     0
102
RTVSPost2010PropOp35
 70
     1
102
RTVSPost2010Prop36
280
     0
102
RTVSPost2010PropOp36
 70
     1
102
RTVSPost2010Prop37
 90
       50
102
RTVSPost2010PropOp37
 70
     1
102
RTVSPost2010Prop38
140
0.0
102
RTVSPost2010PropOp38
 70
     1
102
RTVSPost2010Prop39
140
1.0
102
RTVSPost2010PropOp39
 70
     1
102
RTVSPost2010Prop40
 90
        0
102
RTVSPost2010PropOp40
 70
     1
102
RTVSPost2010Prop41ColorIndex
 90
       18
102
RTVSPost2010Prop41ColorRGB
 90
        0
102
RTVSPost2010PropOp41
 70
     1
102
RTVSPost2010Prop42
 90
       50
102
RTVSPost2010PropOp42
 70
     1
102
RTVSPost2010Prop43
 90
        3
102
RTVSPost2010PropOp43
 70
     1
102
RTVSPost2010Prop44ColorIndex
 90
        5
102
RTVSPost2010Prop44ColorRGB
 90
      255
102
RTVSPost2010PropOp44
 70
     1
102
RTVSPost2010Prop45
280
     0
102
RTVSPost2010PropOp45
 70
     1
102
RTVSPost2010Prop46
 90
       50
102
RTVSPost2010PropOp46
 70
     1
102
RTVSPost2010Prop47
 90
       50
102
RTVSPost2010PropOp47
 70
     1
102
RTVSPost2010Prop48
 90
       50
102
RTVSPost2010PropOp48
 70
     1
102
RTVSPost2010Prop49
280
     0
102
RTVSPost2010PropOp49
 70
     1
102
RTVSPost2010Prop50
 90
       50
102
RTVSPost2010PropOp50
 70
     1
102
RTVSPost2010Prop51ColorIndex
 90
      256
102
RTVSPost2010Prop51ColorRGB
 90
-16777216
102
RTVSPost2010PropOp51
 70
     0
102
RTVSPost2010Prop52
140
1.0
102
RTVSPost2010PropOp52
 70
     0
102
RTVSPost2010Prop53
 90
        2
102
RTVSPost2010PropOp53
 70
     1
102
RTVSPost2010Prop54
  1
strokes_ogs.tif
102
RTVSPost2010PropOp54
 70
     1
102
RTVSPost2010Prop55
280
     0
102
RTVSPost2010PropOp55
 70
     1
102
RTVSPost2010Prop56
140
1.0
102
RTVSPost2010PropOp56
 70
     1
102
RTVSPost2010Prop57
140
1.0
102
RTVSPost2010PropOp57
 70
     1
  0
XRECORD
  5
C25
102
{ACAD_REACTORS
330
C24
102
}
330
C24
100
AcDbXrecord
280
     1
102
RTVSPropertyOp0
 70
     1
102
RTVSPropertyOp1
 70
     1
102
RTVSPropertyOp2
 70
     1
102
RTVSPropertyOp3
 70
     1
102
RTVSPropertyOp4
 70
     1
102
RTVSPropertyOp5
 70
     1
102
RTVSPropertyOp6
 70
     1
102
RTVSPropertyOp7
 70
     1
102
RTVSPropertyOp8
 70
     1
102
RTVSPropertyOp9
 70
     1
102
RTVSPropertyOp10
 70
     1
102
RTVSPropertyOp11
 70
     1
102
RTVSPropertyOp12
 70
     1
102
RTVSPropertyOp13
 70
     1
102
RTVSPropertyOp14
 70
     1
102
RTVSPropertyOp15
 70
     1
102
RTVSPropertyOp16
 70
     1
102
RTVSPropertyOp17
 70
     1
102
RTVSPropertyOp18
 70
     1
102
RTVSPropertyOp19
 70
     1
102
RTVSPropertyOp20
 70
     1
102
RTVSPropertyOp21
 70
     1
102
RTVSPropertyOp22
 70
     1
102
RTVSPropertyOp23
 70
     1
102
RTVSPropertyOp24
 70
     1
102
RTVSPropertyOp25
 70
     1
102
RTVSPropertyOp26
 70
     1
102
RTVSPropertyOp27
 70
     1
102
RTVSPropertyOp28
 70
     1
102
RTVSPropertyOp29
 70
     1
102
RTVSPropertyOp30
 70
     1
102
RTVSPropertyOp31
 70
     1
102
RTVSPropertyOp32
 70
     1
102
RTVSPropertyOp33
 70
     1
102
RTVSPropertyOp34
 70
     1
102
RTVSPropertyOp35
 70
     1
102
RTVSPropertyOp36
 70
     1
102
RTVSPropertyOp37
 70
     1
102
RTVSPropertyOp38
 70
     1
102
RTVSPropertyOp39
 70
     1
102
RTVSPropertyOp40
 70
     1
102
RTVSPropertyOp41
 70
     1
102
RTVSPropertyOp42
 70
     1
102
RTVSPropertyOp43
 70
     1
102
RTVSPropertyOp44
 70
     1
102
RTVSPropertyOp45
 70
     1
102
RTVSPropertyOp46
 70
     1
102
RTVSPropertyOp47
 70
     1
102
RTVSPropertyOp48
 70
     1
102
RTVSPropertyOp49
 70
     1
102
RTVSPropertyOp50
 70
     1
102
RTVSPropertyOp51
 70
     0
102
RTVSPropertyOp52
 70
     0
102
RTVSPropertyOp53
 70
     1
102
RTVSPropertyOp54
 70
     1
102
RTVSPropertyOp55
 70
     1
102
RTVSPropertyOp56
 70
     1
102
RTVSPropertyOp57
 70
     1
102
RTVSPost2010Prop28
280
     0
102
RTVSPost2010PropOp28
 70
     1
102
RTVSPost2010Prop29
280
     1
102
RTVSPost2010PropOp29
 70
     1
102
RTVSPost2010Prop30
280
     1
102
RTVSPost2010PropOp30
 70
     1
102
RTVSPost2010Prop31
280
     0
102
RTVSPost2010PropOp31
 70
     1
102
RTVSPost2010Prop32
280
     0
102
RTVSPost2010PropOp32
 70
     1
102
RTVSPost2010Prop33
280
     0
102
RTVSPost2010PropOp33
 70
     1
102
RTVSPost2010Prop34
280
     0
102
RTVSPost2010PropOp34
 70
     1
102
RTVSPost2010Prop35
280
     0
102
RTVSPost2010PropOp35
 70
     1
102
RTVSPost2010Prop36
280
     0
102
RTVSPost2010PropOp36
 70
     1
102
RTVSPost2010Prop37
 90
       50
102
RTVSPost2010PropOp37
 70
     1
102
RTVSPost2010Prop38
140
0.0
102
RTVSPost2010PropOp38
 70
     1
102
RTVSPost2010Prop39
140
1.0
102
RTVSPost2010PropOp39
 70
     1
102
RTVSPost2010Prop40
 90
        0
102
RTVSPost2010PropOp40
 70
     1
102
RTVSPost2010Prop41ColorIndex
 90
       18
102
RTVSPost2010Prop41ColorRGB
 90
        0
102
RTVSPost2010PropOp41
 70
     1
102
RTVSPost2010Prop42
 90
       50
102
RTVSPost2010PropOp42
 70
     1
102
RTVSPost2010Prop43
 90
        3
102
RTVSPost2010PropOp43
 70
     1
102
RTVSPost2010Prop44ColorIndex
 90
        5
102
RTVSPost2010Prop44ColorRGB
 90
      255
102
RTVSPost2010PropOp44
 70
     1
102
RTVSPost2010Prop45
280
     0
102
RTVSPost2010PropOp45
 70
     1
102
RTVSPost2010Prop46
 90
       50
102
RTVSPost2010PropOp46
 70
     1
102
RTVSPost2010Prop47
 90
       50
102
RTVSPost2010PropOp47
 70
     1
102
RTVSPost2010Prop48
 90
       50
102
RTVSPost2010PropOp48
 70
     1
102
RTVSPost2010Prop49
280
     0
102
RTVSPost2010PropOp49
 70
     1
102
RTVSPost2010Prop50
 90
       50
102
RTVSPost2010PropOp50
 70
     1
102
RTVSPost2010Prop51ColorIndex
 90
      256
102
RTVSPost2010Prop51ColorRGB
 90
-16777216
102
RTVSPost2010PropOp51
 70
     0
102
RTVSPost2010Prop52
140
1.0
102
RTVSPost2010PropOp52
 70
     0
102
RTVSPost2010Prop53
 90
        2
102
RTVSPost2010PropOp53
 70
     1
102
RTVSPost2010Prop54
  1
strokes_ogs.tif
102
RTVSPost2010PropOp54
 70
     1
102
RTVSPost2010Prop55
280
     0
102
RTVSPost2010PropOp55
 70
     1
102
RTVSPost2010Prop56
140
1.0
102
RTVSPost2010PropOp56
 70
     1
102
RTVSPost2010Prop57
140
1.0
102
RTVSPost2010PropOp57
 70
     1
  0
XRECORD
  5
C27
102
{ACAD_REACTORS
330
C26
102
}
330
C26
100
AcDbXrecord
280
     1
102
RTVSPropertyOp0
 70
     1
102
RTVSPropertyOp1
 70
     1
102
RTVSPropertyOp2
 70
     1
102
RTVSPropertyOp3
 70
     1
102
RTVSPropertyOp4
 70
     1
102
RTVSPropertyOp5
 70
     1
102
RTVSPropertyOp6
 70
     1
102
RTVSPropertyOp7
 70
     1
102
RTVSPropertyOp8
 70
     1
102
RTVSPropertyOp9
 70
     1
102
RTVSPropertyOp10
 70
     1
102
RTVSPropertyOp11
 70
     1
102
RTVSPropertyOp12
 70
     1
102
RTVSPropertyOp13
 70
     1
102
RTVSPropertyOp14
 70
     1
102
RTVSPropertyOp15
 70
     1
102
RTVSPropertyOp16
 70
     1
102
RTVSPropertyOp17
 70
     1
102
RTVSPropertyOp18
 70
     1
102
RTVSPropertyOp19
 70
     1
102
RTVSPropertyOp20
 70
     1
102
RTVSPropertyOp21
 70
     1
102
RTVSPropertyOp22
 70
     1
102
RTVSPropertyOp23
 70
     1
102
RTVSPropertyOp24
 70
     1
102
RTVSPropertyOp25
 70
     1
102
RTVSPropertyOp26
 70
     1
102
RTVSPropertyOp27
 70
     1
102
RTVSPropertyOp28
 70
     1
102
RTVSPropertyOp29
 70
     1
102
RTVSPropertyOp30
 70
     1
102
RTVSPropertyOp31
 70
     1
102
RTVSPropertyOp32
 70
     1
102
RTVSPropertyOp33
 70
     1
102
RTVSPropertyOp34
 70
     1
102
RTVSPropertyOp35
 70
     1
102
RTVSPropertyOp36
 70
     1
102
RTVSPropertyOp37
 70
     1
102
RTVSPropertyOp38
 70
     1
102
RTVSPropertyOp39
 70
     1
102
RTVSPropertyOp40
 70
     1
102
RTVSPropertyOp41
 70
     1
102
RTVSPropertyOp42
 70
     1
102
RTVSPropertyOp43
 70
     1
102
RTVSPropertyOp44
 70
     1
102
RTVSPropertyOp45
 70
     1
102
RTVSPropertyOp46
 70
     1
102
RTVSPropertyOp47
 70
     1
102
RTVSPropertyOp48
 70
     1
102
RTVSPropertyOp49
 70
     1
102
RTVSPropertyOp50
 70
     1
102
RTVSPropertyOp51
 70
     0
102
RTVSPropertyOp52
 70
     0
102
RTVSPropertyOp53
 70
     1
102
RTVSPropertyOp54
 70
     1
102
RTVSPropertyOp55
 70
     1
102
RTVSPropertyOp56
 70
     1
102
RTVSPropertyOp57
 70
     1
102
RTVSPost2010Prop28
280
     0
102
RTVSPost2010PropOp28
 70
     1
102
RTVSPost2010Prop29
280
     1
102
RTVSPost2010PropOp29
 70
     1
102
RTVSPost2010Prop30
280
     1
102
RTVSPost2010PropOp30
 70
     1
102
RTVSPost2010Prop31
280
     0
102
RTVSPost2010PropOp31
 70
     1
102
RTVSPost2010Prop32
280
     0
102
RTVSPost2010PropOp32
 70
     1
102
RTVSPost2010Prop33
280
     0
102
RTVSPost2010PropOp33
 70
     1
102
RTVSPost2010Prop34
280
     0
102
RTVSPost2010PropOp34
 70
     1
102
RTVSPost2010Prop35
280
     0
102
RTVSPost2010PropOp35
 70
     1
102
RTVSPost2010Prop36
280
     0
102
RTVSPost2010PropOp36
 70
     1
102
RTVSPost2010Prop37
 90
       50
102
RTVSPost2010PropOp37
 70
     1
102
RTVSPost2010Prop38
140
0.0
102
RTVSPost2010PropOp38
 70
     1
102
RTVSPost2010Prop39
140
1.0
102
RTVSPost2010PropOp39
 70
     1
102
RTVSPost2010Prop40
 90
        0
102
RTVSPost2010PropOp40
 70
     1
102
RTVSPost2010Prop41ColorIndex
 90
       18
102
RTVSPost2010Prop41ColorRGB
 90
        0
102
RTVSPost2010PropOp41
 70
     1
102
RTVSPost2010Prop42
 90
       50
102
RTVSPost2010PropOp42
 70
     1
102
RTVSPost2010Prop43
 90
        3
102
RTVSPost2010PropOp43
 70
     1
102
RTVSPost2010Prop44ColorIndex
 90
        5
102
RTVSPost2010Prop44ColorRGB
 90
      255
102
RTVSPost2010PropOp44
 70
     1
102
RTVSPost2010Prop45
280
     0
102
RTVSPost2010PropOp45
 70
     1
102
RTVSPost2010Prop46
 90
       50
102
RTVSPost2010PropOp46
 70
     1
102
RTVSPost2010Prop47
 90
       50
102
RTVSPost2010PropOp47
 70
     1
102
RTVSPost2010Prop48
 90
       50
102
RTVSPost2010PropOp48
 70
     1
102
RTVSPost2010Prop49
280
     0
102
RTVSPost2010PropOp49
 70
     1
102
RTVSPost2010Prop50
 90
       50
102
RTVSPost2010PropOp50
 70
     1
102
RTVSPost2010Prop51ColorIndex
 90
      256
102
RTVSPost2010Prop51ColorRGB
 90
-16777216
102
RTVSPost2010PropOp51
 70
     0
102
RTVSPost2010Prop52
140
1.0
102
RTVSPost2010PropOp52
 70
     0
102
RTVSPost2010Prop53
 90
        2
102
RTVSPost2010PropOp53
 70
     1
102
RTVSPost2010Prop54
  1
strokes_ogs.tif
102
RTVSPost2010PropOp54
 70
     1
102
RTVSPost2010Prop55
280
     0
102
RTVSPost2010PropOp55
 70
     1
102
RTVSPost2010Prop56
140
1.0
102
RTVSPost2010PropOp56
 70
     1
102
RTVSPost2010Prop57
140
1.0
102
RTVSPost2010PropOp57
 70
     1
  0
XRECORD
  5
C29
102
{ACAD_REACTORS
330
C28
102
}
330
C28
100
AcDbXrecord
280
     1
102
RTVSPropertyOp0
 70
     1
102
RTVSPropertyOp1
 70
     1
102
RTVSPropertyOp2
 70
     1
102
RTVSPropertyOp3
 70
     1
102
RTVSPropertyOp4
 70
     1
102
RTVSPropertyOp5
 70
     1
102
RTVSPropertyOp6
 70
     1
102
RTVSPropertyOp7
 70
     1
102
RTVSPropertyOp8
 70
     1
102
RTVSPropertyOp9
 70
     1
102
RTVSPropertyOp10
 70
     1
102
RTVSPropertyOp11
 70
     1
102
RTVSPropertyOp12
 70
     1
102
RTVSPropertyOp13
 70
     1
102
RTVSPropertyOp14
 70
     1
102
RTVSPropertyOp15
 70
     1
102
RTVSPropertyOp16
 70
     1
102
RTVSPropertyOp17
 70
     1
102
RTVSPropertyOp18
 70
     1
102
RTVSPropertyOp19
 70
     1
102
RTVSPropertyOp20
 70
     1
102
RTVSPropertyOp21
 70
     1
102
RTVSPropertyOp22
 70
     1
102
RTVSPropertyOp23
 70
     1
102
RTVSPropertyOp24
 70
     1
102
RTVSPropertyOp25
 70
     1
102
RTVSPropertyOp26
 70
     1
102
RTVSPropertyOp27
 70
     1
102
RTVSPropertyOp28
 70
     1
102
RTVSPropertyOp29
 70
     1
102
RTVSPropertyOp30
 70
     1
102
RTVSPropertyOp31
 70
     1
102
RTVSPropertyOp32
 70
     1
102
RTVSPropertyOp33
 70
     1
102
RTVSPropertyOp34
 70
     1
102
RTVSPropertyOp35
 70
     1
102
RTVSPropertyOp36
 70
     1
102
RTVSPropertyOp37
 70
     1
102
RTVSPropertyOp38
 70
     1
102
RTVSPropertyOp39
 70
     1
102
RTVSPropertyOp40
 70
     1
102
RTVSPropertyOp41
 70
     1
102
RTVSPropertyOp42
 70
     1
102
RTVSPropertyOp43
 70
     1
102
RTVSPropertyOp44
 70
     1
102
RTVSPropertyOp45
 70
     1
102
RTVSPropertyOp46
 70
     1
102
RTVSPropertyOp47
 70
     1
102
RTVSPropertyOp48
 70
     1
102
RTVSPropertyOp49
 70
     1
102
RTVSPropertyOp50
 70
     1
102
RTVSPropertyOp51
 70
     0
102
RTVSPropertyOp52
 70
     0
102
RTVSPropertyOp53
 70
     1
102
RTVSPropertyOp54
 70
     1
102
RTVSPropertyOp55
 70
     1
102
RTVSPropertyOp56
 70
     1
102
RTVSPropertyOp57
 70
     1
102
RTVSPost2010Prop28
280
     0
102
RTVSPost2010PropOp28
 70
     1
102
RTVSPost2010Prop29
280
     1
102
RTVSPost2010PropOp29
 70
     1
102
RTVSPost2010Prop30
280
     1
102
RTVSPost2010PropOp30
 70
     1
102
RTVSPost2010Prop31
280
     0
102
RTVSPost2010PropOp31
 70
     1
102
RTVSPost2010Prop32
280
     0
102
RTVSPost2010PropOp32
 70
     1
102
RTVSPost2010Prop33
280
     0
102
RTVSPost2010PropOp33
 70
     1
102
RTVSPost2010Prop34
280
     0
102
RTVSPost2010PropOp34
 70
     1
102
RTVSPost2010Prop35
280
     0
102
RTVSPost2010PropOp35
 70
     1
102
RTVSPost2010Prop36
280
     0
102
RTVSPost2010PropOp36
 70
     1
102
RTVSPost2010Prop37
 90
       50
102
RTVSPost2010PropOp37
 70
     1
102
RTVSPost2010Prop38
140
0.0
102
RTVSPost2010PropOp38
 70
     1
102
RTVSPost2010Prop39
140
1.0
102
RTVSPost2010PropOp39
 70
     1
102
RTVSPost2010Prop40
 90
        0
102
RTVSPost2010PropOp40
 70
     1
102
RTVSPost2010Prop41ColorIndex
 90
       18
102
RTVSPost2010Prop41ColorRGB
 90
        0
102
RTVSPost2010PropOp41
 70
     1
102
RTVSPost2010Prop42
 90
       50
102
RTVSPost2010PropOp42
 70
     1
102
RTVSPost2010Prop43
 90
        3
102
RTVSPost2010PropOp43
 70
     1
102
RTVSPost2010Prop44ColorIndex
 90
        5
102
RTVSPost2010Prop44ColorRGB
 90
      255
102
RTVSPost2010PropOp44
 70
     1
102
RTVSPost2010Prop45
280
     0
102
RTVSPost2010PropOp45
 70
     1
102
RTVSPost2010Prop46
 90
       50
102
RTVSPost2010PropOp46
 70
     1
102
RTVSPost2010Prop47
 90
       50
102
RTVSPost2010PropOp47
 70
     1
102
RTVSPost2010Prop48
 90
       50
102
RTVSPost2010PropOp48
 70
     1
102
RTVSPost2010Prop49
280
     0
102
RTVSPost2010PropOp49
 70
     1
102
RTVSPost2010Prop50
 90
       50
102
RTVSPost2010PropOp50
 70
     1
102
RTVSPost2010Prop51ColorIndex
 90
      256
102
RTVSPost2010Prop51ColorRGB
 90
-16777216
102
RTVSPost2010PropOp51
 70
     0
102
RTVSPost2010Prop52
140
1.0
102
RTVSPost2010PropOp52
 70
     0
102
RTVSPost2010Prop53
 90
        2
102
RTVSPost2010PropOp53
 70
     1
102
RTVSPost2010Prop54
  1
strokes_ogs.tif
102
RTVSPost2010PropOp54
 70
     1
102
RTVSPost2010Prop55
280
     0
102
RTVSPost2010PropOp55
 70
     1
102
RTVSPost2010Prop56
140
1.0
102
RTVSPost2010PropOp56
 70
     1
102
RTVSPost2010Prop57
140
1.0
102
RTVSPost2010PropOp57
 70
     1
  0
XRECORD
  5
C2B
102
{ACAD_REACTORS
330
C2A
102
}
330
C2A
100
AcDbXrecord
280
     1
102
RTVSPropertyOp0
 70
     1
102
RTVSPropertyOp1
 70
     1
102
RTVSPropertyOp2
 70
     1
102
RTVSPropertyOp3
 70
     1
102
RTVSPropertyOp4
 70
     1
102
RTVSPropertyOp5
 70
     1
102
RTVSPropertyOp6
 70
     1
102
RTVSPropertyOp7
 70
     1
102
RTVSPropertyOp8
 70
     1
102
RTVSPropertyOp9
 70
     1
102
RTVSPropertyOp10
 70
     1
102
RTVSPropertyOp11
 70
     1
102
RTVSPropertyOp12
 70
     1
102
RTVSPropertyOp13
 70
     1
102
RTVSPropertyOp14
 70
     1
102
RTVSPropertyOp15
 70
     1
102
RTVSPropertyOp16
 70
     1
102
RTVSPropertyOp17
 70
     1
102
RTVSPropertyOp18
 70
     1
102
RTVSPropertyOp19
 70
     1
102
RTVSPropertyOp20
 70
     1
102
RTVSPropertyOp21
 70
     1
102
RTVSPropertyOp22
 70
     1
102
RTVSPropertyOp23
 70
     1
102
RTVSPropertyOp24
 70
     1
102
RTVSPropertyOp25
 70
     1
102
RTVSPropertyOp26
 70
     1
102
RTVSPropertyOp27
 70
     1
102
RTVSPropertyOp28
 70
     1
102
RTVSPropertyOp29
 70
     1
102
RTVSPropertyOp30
 70
     1
102
RTVSPropertyOp31
 70
     1
102
RTVSPropertyOp32
 70
     1
102
RTVSPropertyOp33
 70
     1
102
RTVSPropertyOp34
 70
     1
102
RTVSPropertyOp35
 70
     1
102
RTVSPropertyOp36
 70
     1
102
RTVSPropertyOp37
 70
     1
102
RTVSPropertyOp38
 70
     1
102
RTVSPropertyOp39
 70
     1
102
RTVSPropertyOp40
 70
     1
102
RTVSPropertyOp41
 70
     1
102
RTVSPropertyOp42
 70
     1
102
RTVSPropertyOp43
 70
     1
102
RTVSPropertyOp44
 70
     1
102
RTVSPropertyOp45
 70
     1
102
RTVSPropertyOp46
 70
     1
102
RTVSPropertyOp47
 70
     1
102
RTVSPropertyOp48
 70
     1
102
RTVSPropertyOp49
 70
     1
102
RTVSPropertyOp50
 70
     1
102
RTVSPropertyOp51
 70
     0
102
RTVSPropertyOp52
 70
     0
102
RTVSPropertyOp53
 70
     1
102
RTVSPropertyOp54
 70
     1
102
RTVSPropertyOp55
 70
     1
102
RTVSPropertyOp56
 70
     1
102
RTVSPropertyOp57
 70
     1
102
RTVSPost2010Prop28
280
     0
102
RTVSPost2010PropOp28
 70
     1
102
RTVSPost2010Prop29
280
     1
102
RTVSPost2010PropOp29
 70
     1
102
RTVSPost2010Prop30
280
     1
102
RTVSPost2010PropOp30
 70
     1
102
RTVSPost2010Prop31
280
     0
102
RTVSPost2010PropOp31
 70
     1
102
RTVSPost2010Prop32
280
     0
102
RTVSPost2010PropOp32
 70
     1
102
RTVSPost2010Prop33
280
     0
102
RTVSPost2010PropOp33
 70
     1
102
RTVSPost2010Prop34
280
     0
102
RTVSPost2010PropOp34
 70
     1
102
RTVSPost2010Prop35
280
     0
102
RTVSPost2010PropOp35
 70
     1
102
RTVSPost2010Prop36
280
     0
102
RTVSPost2010PropOp36
 70
     1
102
RTVSPost2010Prop37
 90
       50
102
RTVSPost2010PropOp37
 70
     1
102
RTVSPost2010Prop38
140
0.0
102
RTVSPost2010PropOp38
 70
     1
102
RTVSPost2010Prop39
140
1.0
102
RTVSPost2010PropOp39
 70
     1
102
RTVSPost2010Prop40
 90
        0
102
RTVSPost2010PropOp40
 70
     1
102
RTVSPost2010Prop41ColorIndex
 90
       18
102
RTVSPost2010Prop41ColorRGB
 90
        0
102
RTVSPost2010PropOp41
 70
     1
102
RTVSPost2010Prop42
 90
       50
102
RTVSPost2010PropOp42
 70
     1
102
RTVSPost2010Prop43
 90
        3
102
RTVSPost2010PropOp43
 70
     1
102
RTVSPost2010Prop44ColorIndex
 90
        5
102
RTVSPost2010Prop44ColorRGB
 90
      255
102
RTVSPost2010PropOp44
 70
     1
102
RTVSPost2010Prop45
280
     0
102
RTVSPost2010PropOp45
 70
     1
102
RTVSPost2010Prop46
 90
       50
102
RTVSPost2010PropOp46
 70
     1
102
RTVSPost2010Prop47
 90
       50
102
RTVSPost2010PropOp47
 70
     1
102
RTVSPost2010Prop48
 90
       50
102
RTVSPost2010PropOp48
 70
     1
102
RTVSPost2010Prop49
280
     0
102
RTVSPost2010PropOp49
 70
     1
102
RTVSPost2010Prop50
 90
       50
102
RTVSPost2010PropOp50
 70
     1
102
RTVSPost2010Prop51ColorIndex
 90
      256
102
RTVSPost2010Prop51ColorRGB
 90
-16777216
102
RTVSPost2010PropOp51
 70
     0
102
RTVSPost2010Prop52
140
1.0
102
RTVSPost2010PropOp52
 70
     0
102
RTVSPost2010Prop53
 90
        2
102
RTVSPost2010PropOp53
 70
     1
102
RTVSPost2010Prop54
  1
strokes_ogs.tif
102
RTVSPost2010PropOp54
 70
     1
102
RTVSPost2010Prop55
280
     0
102
RTVSPost2010PropOp55
 70
     1
102
RTVSPost2010Prop56
140
1.0
102
RTVSPost2010PropOp56
 70
     1
102
RTVSPost2010Prop57
140
1.0
102
RTVSPost2010PropOp57
 70
     1
  0
XRECORD
  5
C2D
102
{ACAD_REACTORS
330
C2C
102
}
330
C2C
100
AcDbXrecord
280
     1
102
RTVSPropertyOp0
 70
     1
102
RTVSPropertyOp1
 70
     1
102
RTVSPropertyOp2
 70
     1
102
RTVSPropertyOp3
 70
     1
102
RTVSPropertyOp4
 70
     1
102
RTVSPropertyOp5
 70
     1
102
RTVSPropertyOp6
 70
     1
102
RTVSPropertyOp7
 70
     1
102
RTVSPropertyOp8
 70
     1
102
RTVSPropertyOp9
 70
     1
102
RTVSPropertyOp10
 70
     1
102
RTVSPropertyOp11
 70
     1
102
RTVSPropertyOp12
 70
     1
102
RTVSPropertyOp13
 70
     1
102
RTVSPropertyOp14
 70
     1
102
RTVSPropertyOp15
 70
     1
102
RTVSPropertyOp16
 70
     1
102
RTVSPropertyOp17
 70
     1
102
RTVSPropertyOp18
 70
     1
102
RTVSPropertyOp19
 70
     1
102
RTVSPropertyOp20
 70
     1
102
RTVSPropertyOp21
 70
     1
102
RTVSPropertyOp22
 70
     1
102
RTVSPropertyOp23
 70
     1
102
RTVSPropertyOp24
 70
     1
102
RTVSPropertyOp25
 70
     1
102
RTVSPropertyOp26
 70
     1
102
RTVSPropertyOp27
 70
     1
102
RTVSPropertyOp28
 70
     1
102
RTVSPropertyOp29
 70
     1
102
RTVSPropertyOp30
 70
     1
102
RTVSPropertyOp31
 70
     1
102
RTVSPropertyOp32
 70
     1
102
RTVSPropertyOp33
 70
     1
102
RTVSPropertyOp34
 70
     1
102
RTVSPropertyOp35
 70
     1
102
RTVSPropertyOp36
 70
     1
102
RTVSPropertyOp37
 70
     1
102
RTVSPropertyOp38
 70
     1
102
RTVSPropertyOp39
 70
     1
102
RTVSPropertyOp40
 70
     1
102
RTVSPropertyOp41
 70
     1
102
RTVSPropertyOp42
 70
     1
102
RTVSPropertyOp43
 70
     1
102
RTVSPropertyOp44
 70
     1
102
RTVSPropertyOp45
 70
     1
102
RTVSPropertyOp46
 70
     1
102
RTVSPropertyOp47
 70
     1
102
RTVSPropertyOp48
 70
     1
102
RTVSPropertyOp49
 70
     1
102
RTVSPropertyOp50
 70
     1
102
RTVSPropertyOp51
 70
     0
102
RTVSPropertyOp52
 70
     0
102
RTVSPropertyOp53
 70
     1
102
RTVSPropertyOp54
 70
     1
102
RTVSPropertyOp55
 70
     1
102
RTVSPropertyOp56
 70
     1
102
RTVSPropertyOp57
 70
     1
102
RTVSPost2010Prop28
280
     0
102
RTVSPost2010PropOp28
 70
     1
102
RTVSPost2010Prop29
280
     1
102
RTVSPost2010PropOp29
 70
     1
102
RTVSPost2010Prop30
280
     1
102
RTVSPost2010PropOp30
 70
     1
102
RTVSPost2010Prop31
280
     0
102
RTVSPost2010PropOp31
 70
     1
102
RTVSPost2010Prop32
280
     0
102
RTVSPost2010PropOp32
 70
     1
102
RTVSPost2010Prop33
280
     0
102
RTVSPost2010PropOp33
 70
     1
102
RTVSPost2010Prop34
280
     0
102
RTVSPost2010PropOp34
 70
     1
102
RTVSPost2010Prop35
280
     0
102
RTVSPost2010PropOp35
 70
     1
102
RTVSPost2010Prop36
280
     0
102
RTVSPost2010PropOp36
 70
     1
102
RTVSPost2010Prop37
 90
       50
102
RTVSPost2010PropOp37
 70
     1
102
RTVSPost2010Prop38
140
0.0
102
RTVSPost2010PropOp38
 70
     1
102
RTVSPost2010Prop39
140
1.0
102
RTVSPost2010PropOp39
 70
     1
102
RTVSPost2010Prop40
 90
        0
102
RTVSPost2010PropOp40
 70
     1
102
RTVSPost2010Prop41ColorIndex
 90
       18
102
RTVSPost2010Prop41ColorRGB
 90
        0
102
RTVSPost2010PropOp41
 70
     1
102
RTVSPost2010Prop42
 90
       50
102
RTVSPost2010PropOp42
 70
     1
102
RTVSPost2010Prop43
 90
        3
102
RTVSPost2010PropOp43
 70
     1
102
RTVSPost2010Prop44ColorIndex
 90
        5
102
RTVSPost2010Prop44ColorRGB
 90
      255
102
RTVSPost2010PropOp44
 70
     1
102
RTVSPost2010Prop45
280
     0
102
RTVSPost2010PropOp45
 70
     1
102
RTVSPost2010Prop46
 90
       50
102
RTVSPost2010PropOp46
 70
     1
102
RTVSPost2010Prop47
 90
       50
102
RTVSPost2010PropOp47
 70
     1
102
RTVSPost2010Prop48
 90
       50
102
RTVSPost2010PropOp48
 70
     1
102
RTVSPost2010Prop49
280
     0
102
RTVSPost2010PropOp49
 70
     1
102
RTVSPost2010Prop50
 90
       50
102
RTVSPost2010PropOp50
 70
     1
102
RTVSPost2010Prop51ColorIndex
 90
      256
102
RTVSPost2010Prop51ColorRGB
 90
-16777216
102
RTVSPost2010PropOp51
 70
     0
102
RTVSPost2010Prop52
140
1.0
102
RTVSPost2010PropOp52
 70
     0
102
RTVSPost2010Prop53
 90
        2
102
RTVSPost2010PropOp53
 70
     1
102
RTVSPost2010Prop54
  1
strokes_ogs.tif
102
RTVSPost2010PropOp54
 70
     1
102
RTVSPost2010Prop55
280
     0
102
RTVSPost2010PropOp55
 70
     1
102
RTVSPost2010Prop56
140
1.0
102
RTVSPost2010PropOp56
 70
     1
102
RTVSPost2010Prop57
140
1.0
102
RTVSPost2010PropOp57
 70
     1
  0
XRECORD
  5
C2F
102
{ACAD_REACTORS
330
C2E
102
}
330
C2E
100
AcDbXrecord
280
     1
102
RTVSPropertyOp0
 70
     1
102
RTVSPropertyOp1
 70
     1
102
RTVSPropertyOp2
 70
     1
102
RTVSPropertyOp3
 70
     1
102
RTVSPropertyOp4
 70
     1
102
RTVSPropertyOp5
 70
     1
102
RTVSPropertyOp6
 70
     1
102
RTVSPropertyOp7
 70
     1
102
RTVSPropertyOp8
 70
     1
102
RTVSPropertyOp9
 70
     1
102
RTVSPropertyOp10
 70
     1
102
RTVSPropertyOp11
 70
     1
102
RTVSPropertyOp12
 70
     1
102
RTVSPropertyOp13
 70
     1
102
RTVSPropertyOp14
 70
     1
102
RTVSPropertyOp15
 70
     1
102
RTVSPropertyOp16
 70
     1
102
RTVSPropertyOp17
 70
     1
102
RTVSPropertyOp18
 70
     1
102
RTVSPropertyOp19
 70
     1
102
RTVSPropertyOp20
 70
     1
102
RTVSPropertyOp21
 70
     1
102
RTVSPropertyOp22
 70
     1
102
RTVSPropertyOp23
 70
     1
102
RTVSPropertyOp24
 70
     1
102
RTVSPropertyOp25
 70
     1
102
RTVSPropertyOp26
 70
     1
102
RTVSPropertyOp27
 70
     1
102
RTVSPropertyOp28
 70
     1
102
RTVSPropertyOp29
 70
     1
102
RTVSPropertyOp30
 70
     1
102
RTVSPropertyOp31
 70
     1
102
RTVSPropertyOp32
 70
     1
102
RTVSPropertyOp33
 70
     1
102
RTVSPropertyOp34
 70
     1
102
RTVSPropertyOp35
 70
     1
102
RTVSPropertyOp36
 70
     1
102
RTVSPropertyOp37
 70
     1
102
RTVSPropertyOp38
 70
     1
102
RTVSPropertyOp39
 70
     1
102
RTVSPropertyOp40
 70
     1
102
RTVSPropertyOp41
 70
     1
102
RTVSPropertyOp42
 70
     1
102
RTVSPropertyOp43
 70
     1
102
RTVSPropertyOp44
 70
     1
102
RTVSPropertyOp45
 70
     1
102
RTVSPropertyOp46
 70
     1
102
RTVSPropertyOp47
 70
     1
102
RTVSPropertyOp48
 70
     1
102
RTVSPropertyOp49
 70
     1
102
RTVSPropertyOp50
 70
     1
102
RTVSPropertyOp51
 70
     0
102
RTVSPropertyOp52
 70
     0
102
RTVSPropertyOp53
 70
     1
102
RTVSPropertyOp54
 70
     1
102
RTVSPropertyOp55
 70
     1
102
RTVSPropertyOp56
 70
     1
102
RTVSPropertyOp57
 70
     1
102
RTVSPost2010Prop28
280
     0
102
RTVSPost2010PropOp28
 70
     1
102
RTVSPost2010Prop29
280
     1
102
RTVSPost2010PropOp29
 70
     1
102
RTVSPost2010Prop30
280
     1
102
RTVSPost2010PropOp30
 70
     1
102
RTVSPost2010Prop31
280
     0
102
RTVSPost2010PropOp31
 70
     1
102
RTVSPost2010Prop32
280
     0
102
RTVSPost2010PropOp32
 70
     1
102
RTVSPost2010Prop33
280
     0
102
RTVSPost2010PropOp33
 70
     1
102
RTVSPost2010Prop34
280
     0
102
RTVSPost2010PropOp34
 70
     1
102
RTVSPost2010Prop35
280
     0
102
RTVSPost2010PropOp35
 70
     1
102
RTVSPost2010Prop36
280
     0
102
RTVSPost2010PropOp36
 70
     1
102
RTVSPost2010Prop37
 90
       50
102
RTVSPost2010PropOp37
 70
     1
102
RTVSPost2010Prop38
140
0.0
102
RTVSPost2010PropOp38
 70
     1
102
RTVSPost2010Prop39
140
1.0
102
RTVSPost2010PropOp39
 70
     1
102
RTVSPost2010Prop40
 90
        0
102
RTVSPost2010PropOp40
 70
     1
102
RTVSPost2010Prop41ColorIndex
 90
       18
102
RTVSPost2010Prop41ColorRGB
 90
        0
102
RTVSPost2010PropOp41
 70
     1
102
RTVSPost2010Prop42
 90
       50
102
RTVSPost2010PropOp42
 70
     1
102
RTVSPost2010Prop43
 90
        3
102
RTVSPost2010PropOp43
 70
     1
102
RTVSPost2010Prop44ColorIndex
 90
        5
102
RTVSPost2010Prop44ColorRGB
 90
      255
102
RTVSPost2010PropOp44
 70
     1
102
RTVSPost2010Prop45
280
     0
102
RTVSPost2010PropOp45
 70
     1
102
RTVSPost2010Prop46
 90
       50
102
RTVSPost2010PropOp46
 70
     1
102
RTVSPost2010Prop47
 90
       50
102
RTVSPost2010PropOp47
 70
     1
102
RTVSPost2010Prop48
 90
       50
102
RTVSPost2010PropOp48
 70
     1
102
RTVSPost2010Prop49
280
     0
102
RTVSPost2010PropOp49
 70
     1
102
RTVSPost2010Prop50
 90
       50
102
RTVSPost2010PropOp50
 70
     1
102
RTVSPost2010Prop51ColorIndex
 90
      256
102
RTVSPost2010Prop51ColorRGB
 90
-16777216
102
RTVSPost2010PropOp51
 70
     0
102
RTVSPost2010Prop52
140
1.0
102
RTVSPost2010PropOp52
 70
     0
102
RTVSPost2010Prop53
 90
        2
102
RTVSPost2010PropOp53
 70
     1
102
RTVSPost2010Prop54
  1
strokes_ogs.tif
102
RTVSPost2010PropOp54
 70
     1
102
RTVSPost2010Prop55
280
     0
102
RTVSPost2010PropOp55
 70
     1
102
RTVSPost2010Prop56
140
1.0
102
RTVSPost2010PropOp56
 70
     1
102
RTVSPost2010Prop57
140
1.0
102
RTVSPost2010PropOp57
 70
     1
  0
ENDSEC
  0
EOF
